Ссылка на приватное зеркало нашего сайта всего за 1$. Внимание количество ограничено!!!

2 сезон

iTunes

1 сезон

1

iTunes

iTunes

iTunes

1 сезон

RePack

30

ИГРА 18+

pack

ВАЖНО

!!Акция!!

Alien_RageХит недели

RePack

MK11
pack

Забери бонус

RePack

jed

!!Акция!!

Alien_Rage

RePack

fifa19

RePack

Assassins Creed: Odyssey

RePack

NEED FOR SPEED™ PAYBACK

4 сезон

9 сезон

Бесстыжие 9 сезон

Все сериалы

все сериалы на PB.wtf

RePack

FAR CRY 5
  

Тёмная долина / Das finstere Tal (Андреас Прохазка / Andreas Prochaska) [2014, Австрия, Германия, вестерн, BDRip 1080p, Профессиональный, многоголосый] pb.wtf

Тёмная долина через торрент pb.wtf

Размер: 8.45 GB | Добавлен: 6 лет назад | Торрент скачан:349 раз
Скачать  

26-09-2014 13:09 Тёмная долина Скачать торрент  


Название: Тёмная долина
Оригинальное название: Das finstere Tal (The Dark Valley)
Год выпуска: 2014
Жанр: Вестерн
Выпущено: Австрия, Германия, Allegro Film, X-Filme Creative Pool
Перевод: Профессиональный, многоголосый («Позитив» по заказу «Русский Репортаж»)

Режиссер: Андреас Прохазка
В ролях: Сэм Райли, Тобиас Моретти, Хельмут Хеуслер, Мартин Лойтгеб, Йоханнес Николусси, Клеменс Шик, Флориан Брюкнер, Ганс-Михаэль Реберг, Эрвин Штайнхауэр, Франц Ксавер Брюкнер

Описание:

Тайными путями одинокий всадник пробирается в маленький городок высоко в Альпах. Никто не знает, откуда прибыл незнакомец и чего он хочет. Но в одном жители городка уверены — они не хотят, чтобы он оставался здесь.


Файл:

Качество: BDRip 1080p
Формат: MKV
Видео кодек: AVC
Аудио кодек:AC3, DTS
Видео: AVC, 1920x816 (2.35:1), 8400 kbps, 24 fps, 0,223 bpp
Аудио №1: русский / AC3 / 5.1 / 48 kHz / 640 kbps / 16 bit | Профессиональный многоголосый - студия «Позитив» по заказу «Русский Репортаж»|
Аудио №2: немецкий / DTS / 5.1 / 48 kHz / 1510 kbps / 24 bit


Автор рипа: Сообщество:

Format : Matroska
Format version : Version 2
File size : 8.45 GiB
Duration : 1h 54mn
Overall bit rate : 10.5 Mbps
Movie name : Tjomnaja dolina.(2014).BDRip.1080p.[denis100]
Encoded date : UTC 2014-09-21 06:23:50
Writing application : mkvmerge v5.8.0 ('No Sleep / Pillow') built on Sep 2 2012 15:37:04
Writing library : libebml v1.2.3 + libmatroska v1.3.0

Video
ID : 1
Format : AVC
Format/Info : Advanced Video Codec
Format profile : High@L4.1
Format settings, CABAC : Yes
Format settings, ReFrames : 5 frames
Codec ID : V_MPEG4/ISO/AVC
Duration : 1h 54mn
Bit rate : 8 400 Kbps
Width : 1 920 pixels
Height : 816 pixels
Display aspect ratio : 2.35:1
Frame rate : 24.000 fps
Color space : YUV
Chroma subsampling : 4:2:0
Bit depth : 8 bits
Scan type : Progressive
Bits/(Pixel*Frame) : 0.223
Stream size : 6.56 GiB (78%)
Title : Tjomnaja dolina.(2014).BDRip.1080p.[denis100]
Writing library : x264 core 142 r2453 ea0ca51
Encoding settings : cabac=1 / ref=5 / deblock=1:-3:-3 / analyse=0x3:0x133 / me=umh / subme=11 / psy=1 / psy_rd=1.00:0.10 / mixed_ref=1 / me_range=32 / chroma_me=1 / trellis=2 / 8x8dct=1 / cqm=0 / deadzone=21,11 / fast_pskip=0 / chroma_qp_offset=-3 / threads=6 / lookahead_threads=1 / sliced_threads=0 / nr=0 / decimate=1 / interlaced=0 / bluray_compat=0 / constrained_intra=0 / bframes=6 / b_pyramid=2 / b_adapt=2 / b_bias=0 / direct=3 / weightb=1 / open_gop=0 / weightp=2 / keyint=240 / keyint_min=24 / scenecut=40 / intra_refresh=0 / rc=2pass / mbtree=0 / bitrate=8400 / ratetol=1.0 / qcomp=0.60 / qpmin=0 / qpmax=69 / qpstep=4 / cplxblur=20.0 / qblur=0.5 / ip_ratio=1.40 / pb_ratio=1.30 / aq=1:0.90
Language : English
Default : Yes
Forced : No

Audio #1
ID : 2
Format : AC-3
Format/Info : Audio Coding 3
Mode extension : CM (complete main)
Codec ID : A_AC3
Duration : 1h 54mn
Bit rate mode : Constant
Bit rate : 640 Kbps
Channel(s) : 6 channels
Channel positions : Front: L C R, Side: L R, LFE
Sampling rate : 48.0 KHz
Bit depth : 16 bits
Compression mode : Lossy
Stream size : 525 MiB (6%)
Title : Многоголосый закадровый, Позитив по заказу РР
Language : Russian
Default : Yes
Forced : No

Audio #2
ID : 3
Format : DTS
Format/Info : Digital Theater Systems
Codec ID : A_DTS
Duration : 1h 54mn
Bit rate mode : Constant
Bit rate : 1 510 Kbps
Channel(s) : 6 channels
Channel positions : Front: L C R, Side: L R, LFE
Sampling rate : 48.0 KHz
Bit depth : 24 bits
Compression mode : Lossy
Stream size : 1.21 GiB (14%)
Title : German
Language : German
Default : No
Forced : No

Menu
00:00:00.000 : en:00:00:00.000
00:09:40.250 : en:00:09:40.250
00:20:09.708 : en:00:20:09.708
00:28:27.000 : en:00:28:27.000
00:39:48.625 : en:00:39:48.625
00:49:15.000 : en:00:49:15.000
00:56:12.833 : en:00:56:12.833
01:03:55.541 : en:01:03:55.541
01:08:34.083 : en:01:08:34.083
01:21:32.958 : en:01:21:32.958
01:33:25.708 : en:01:33:25.708
01:49:57.333 : en:01:49:57.333
x264 [info]: frame I:1019 Avg QP:13.68 size:184466
x264 [info]: frame P:37878 Avg QP:16.12 size: 79850
x264 [info]: frame B:126320 Avg QP:18.05 size: 31743
pb.wtf



Скачать Тёмная долина через торрент http://i66.fastpic.ru/big/2014/0926/4f/10b2b9f6122e9bd8e9bdd809e143794f.png Скачать фильм Тёмная долина через торрент бесплантно в хорошем качестве Описание: Тайными путями одинокий всадник пробирается в маленький городок высоко в Альпах. Никто не знает, откуда прибыл незнакомец и чего ... 10 10 10
Info! Золотая раздача, скачанное не засчитывается.
Торрент: Зарегистрирован [2014-09-26 13:09] · скачан: 349 раз
Статус: √ проверено
Размер: 8.45 GB
Как cкачать? Как скачать Тёмная долина через торрент | qTorrent

% Раздел Тема Автор DL S | L
Фильмы 2014 [DVDrip, WEB-DLRip, HDrip] [ 1.46 GB ] Тёмная долина / Das finstere Tal [2014 HDRip-AVC многоголосый [] Ворон Скачать
1 | 0
Фильмы 2014 [DVDrip, WEB-DLRip, HDrip] [ 1.37 GB ] Тёмная долина / Das finstere Tal [2014 Австрия Германия HDRip многоголосый [] GEKADOL Скачать
1 | 0
Фильмы 2014 [DVDrip, WEB-DLRip, HDrip] [ 2.05 GB ] Тёмная долина / Das finstere Tal [2014 Австрия Германия HDRip многоголосый - ] _KaisiK_ Скачать
1 | 0
Фильмы (Blu-ray, BD-Remux, HDDVD) [ 21.07 GB ] Тёмная долина / Das finstere Tal [2014 BD Remux MVO+VO] от R.G. HD-Films Ворон Скачать
1 | 0
Фильмы 2014 [DVDrip, WEB-DLRip, HDrip] [ 706 MB ] Тёмная долина / Das finstere Tal [2014 HDRip многоголосый закадровый ] coc900 Скачать
1 | 0
Фильмы [HD 720p, 1080p] (Хороший звук DUB, MVO) [ 4.68 GB ] Тёмная долина / Das finstere Tal [2014 Австрия Германия BDRip 720p многоголосый [] -Lockdown- Скачать
1 | 0

28-11-2019 20:33  

Отключить всю рекламу на сайте

    Дорогой пользователь! Огромная просьба, поблагодарите релизера, оцените раздачу и оставьте свои комментарий, если Вы скачали Тёмная долина через торрент бесплатно! Внесите свою лепту в развитие PiratBit!
    Комментировать посты могут только пользователи прошедшие не сложную регистрацию
    Показать сообщения:    

    Тёмная долина через торрент
    Скачать бесплатно Тёмная долина
    Тёмная долина скачать торрент
    Тёмная долина смотреть онлайн
    Cкачать фильм Тёмная долина бесплатно
    Тёмная долина скачать торрент в хорошем качестве
    Тёмная долина смотреть онлайн бесплатно в хорошем качестве


    Вы не можете начинать темы
    Вы не можете отвечать на сообщения
    Вы не можете редактировать свои сообщения
    Вы не можете удалять свои сообщения
    Вы не можете голосовать в опросах
    Вы не можете прикреплять файлы к сообщениям
    Вы можете скачивать файлы