Ссылка на приватное зеркало нашего сайта всего за 1$. Внимание количество ограничено!!!

2 сезон

iTunes

1 сезон

1

iTunes

iTunes

iTunes

1 сезон

RePack

30

ИГРА 18+

pack

ВАЖНО

!!Акция!!

Alien_RageХит недели

RePack

MK11
pack

Забери бонус

RePack

jed

!!Акция!!

Alien_Rage

RePack

fifa19

RePack

Assassins Creed: Odyssey

RePack

NEED FOR SPEED™ PAYBACK

4 сезон

9 сезон

Бесстыжие 9 сезон

Все сериалы

все сериалы на PB.wtf

RePack

FAR CRY 5
  

Большой бизнес / Big Business (Джим Абрахамс / Jim Abrahams) [1988, США, комедия, BDRip 1080p, DUB+MVO+AVO] pb.wtf

Большой бизнес через торрент pb.wtf

Размер: 7.95 GB | Добавлен: 6 лет назад | Торрент скачан:23 раза
Скачать  

26-09-2014 17:04 Большой бизнес Скачать торрент  

Большой бизнес / Big Business

Год выпуска: 1988
Страна: США
Жанр: комедия
Продолжительность: 01:37:45
Перевод: Дубляж, Профессиональный многоголосый, Авторский (одноголосый)
Субтитры: English
Режиссер: Джим Абрахамс / Jim Abrahams
В ролях: Бетт Мидлер (Sadie Shelton / Sadie Ratliff), Лили Томлин (Rose Shelton / Rose Ratliff), Фред Уорд (Roone Dimmick), Эдвард Херрманн (Graham Sherbourne), Микеле Плачидо (Fabio Alberici), Дэниэл Джерролл (Chuck), Барри Праймус (Michael), Майкл Гросс (Dr. Jay Marshall), Дебора Раш (Binky Shelton), Николас Костер (Hunt Shelton), Патриция Гол (Iona Ratliff), Дж. К. Куин (Garth Ratliff)
Описание:
Сестры - близнецы Сэди и Роуз Ратлифф почему-то с самого детства не были похожи друг на друга. Можно сказать, что они были противоположностями. Но это никого не смущает: всякое бывает.
Их спокойная жизнь заканчивается, когда они обе поехали в Нью-Йорк, где случайно встречают Сэди и Роуз Шелтон, которые подозрительно на них похожи.

Качество: BDRip 1080p
Формат: MKV
Видео кодек: AVC
Аудио кодек:AC3
Видео: AVC, 1920x1036 (1.853), 9978 kbps, 23,976 fps, 0,209 bpp
Аудио №1: русский / AC3 / 2.0 / 48 kHz / 192 kbps / 16 bit |Дублированный (ВГТРК)|
Аудио №2: русский / AC3 / 2.0 / 48 kHz / 192 kbps / 16 bit |Профессиональный многоголосый (Первый канал)|
Аудио №3: русский / AC3 / 2.0 / 48 kHz / 640 kbps / 16 bit |Авторский одноголосый (Алексей Михалев)|
Аудио №4: английский / AC3 / 2.0 / 48 kHz / 640 kbps / 16 bit


Автор рипа: Сообщество:
Format : Matroska
Format version : Version 2
File size : 7.95 GiB
Duration : 1h 37mn
Overall bit rate : 11.6 Mbps
Movie name : Bol'shoj biznes.(1988).BDRip.1080p.[denis100]
Encoded date : UTC 2014-09-26 10:04:42
Writing application : mkvmerge v5.8.0 ('No Sleep / Pillow') built on Sep 2 2012 15:37:04
Writing library : libebml v1.2.3 + libmatroska v1.3.0

Video
ID : 1
Format : AVC
Format/Info : Advanced Video Codec
Format profile : High@L4.1
Format settings, CABAC : Yes
Format settings, ReFrames : 4 frames
Codec ID : V_MPEG4/ISO/AVC
Duration : 1h 37mn
Bit rate : 9 978 Kbps
Width : 1 920 pixels
Height : 1 036 pixels
Display aspect ratio : 1.853
Frame rate : 23.976 fps
Color space : YUV
Chroma subsampling : 4:2:0
Bit depth : 8 bits
Scan type : Progressive
Bits/(Pixel*Frame) : 0.209
Stream size : 6.65 GiB (84%)
Title : Bol'shoj biznes.(1988).BDRip.1080p.[denis100]
Writing library : x264 core 142 r2479 dd79a61
Encoding settings : cabac=1 / ref=4 / deblock=1:-3:-3 / analyse=0x3:0x133 / me=umh / subme=11 / psy=1 / psy_rd=1.00:0.10 / mixed_ref=1 / me_range=32 / chroma_me=1 / trellis=2 / 8x8dct=1 / cqm=0 / deadzone=21,11 / fast_pskip=0 / chroma_qp_offset=-3 / threads=6 / lookahead_threads=1 / sliced_threads=0 / nr=0 / decimate=1 / interlaced=0 / bluray_compat=0 / constrained_intra=0 / bframes=8 / b_pyramid=2 / b_adapt=2 / b_bias=0 / direct=3 / weightb=1 / open_gop=0 / weightp=2 / keyint=240 / keyint_min=23 / scenecut=40 / intra_refresh=0 / rc=2pass / mbtree=0 / bitrate=9978 / ratetol=1.0 / qcomp=0.60 / qpmin=0 / qpmax=69 / qpstep=4 / cplxblur=20.0 / qblur=0.5 / ip_ratio=1.40 / pb_ratio=1.30 / aq=1:1.00
Language : English
Default : Yes
Forced : No

Audio #1
ID : 2
Format : AC-3
Format/Info : Audio Coding 3
Mode extension : CM (complete main)
Codec ID : A_AC3
Duration : 1h 37mn
Bit rate mode : Constant
Bit rate : 192 Kbps
Channel(s) : 2 channels
Channel positions : Front: L R
Sampling rate : 48.0 KHz
Bit depth : 16 bits
Compression mode : Lossy
Stream size : 134 MiB (2%)
Title : Дубляж, ВГТРК
Language : Russian
Default : Yes
Forced : No

Audio #2
ID : 3
Format : AC-3
Format/Info : Audio Coding 3
Mode extension : CM (complete main)
Codec ID : A_AC3
Duration : 1h 37mn
Bit rate mode : Constant
Bit rate : 192 Kbps
Channel(s) : 2 channels
Channel positions : Front: L R
Sampling rate : 48.0 KHz
Bit depth : 16 bits
Compression mode : Lossy
Stream size : 134 MiB (2%)
Title : Многоголосый закадровый, Первый канал
Language : Russian
Default : No
Forced : No

Audio #3
ID : 4
Format : AC-3
Format/Info : Audio Coding 3
Mode extension : CM (complete main)
Codec ID : A_AC3
Duration : 1h 37mn
Bit rate mode : Constant
Bit rate : 640 Kbps
Channel(s) : 2 channels
Channel positions : Front: L R
Sampling rate : 48.0 KHz
Bit depth : 16 bits
Compression mode : Lossy
Stream size : 448 MiB (6%)
Title : Авторский, А. Михалев
Language : Russian
Default : No
Forced : No

Audio #4
ID : 5
Format : AC-3
Format/Info : Audio Coding 3
Mode extension : CM (complete main)
Codec ID : A_AC3
Duration : 1h 37mn
Bit rate mode : Constant
Bit rate : 640 Kbps
Channel(s) : 2 channels
Channel positions : Front: L R
Sampling rate : 48.0 KHz
Bit depth : 16 bits
Compression mode : Lossy
Stream size : 448 MiB (6%)
Title : English
Language : English
Default : No
Forced : No

Text
ID : 6
Format : UTF-8
Codec ID : S_TEXT/UTF8
Codec ID/Info : UTF-8 Plain Text
Language : English
Default : No
Forced : No

Menu
00:00:00.000 : en:00:00:00.000
00:09:02.500 : en:00:09:02.500
00:14:55.895 : en:00:14:55.895
00:20:05.955 : en:00:20:05.955
00:25:24.481 : en:00:25:24.481
00:33:14.868 : en:00:33:14.868
00:38:08.786 : en:00:38:08.786
00:43:58.886 : en:00:43:58.886
00:47:17.543 : en:00:47:17.543
00:55:58.689 : en:00:55:58.689
01:00:28.583 : en:01:00:28.583
01:08:23.016 : en:01:08:23.016
01:15:23.644 : en:01:15:23.644
01:20:56.810 : en:01:20:56.810
01:28:28.053 : en:01:28:28.053
pb.wtf



Скачать Большой бизнес через торрент http://i68.fastpic.ru/big/2014/0926/c2/1fc71b1372858488b42af319259bd2c2.png Скачать фильм Большой бизнес через торрент бесплантно в хорошем качестве Описание: Сестры - близнецы Сэди и Роуз Ратлифф почему-то с самого детства не были похожи друг на друга. Можно сказать, что они были ... 10 10 3
Info! Золотая раздача, скачанное не засчитывается.
Торрент: Зарегистрирован [2014-09-26 17:04] · скачан: 23 раз
Статус: √ проверено
Размер: 7.95 GB
Как cкачать? Как скачать Большой бизнес через торрент | qTorrent

28-11-2019 20:33  

Отключить всю рекламу на сайте

    Дорогой пользователь! Огромная просьба, поблагодарите релизера, оцените раздачу и оставьте свои комментарий, если Вы скачали Большой бизнес через торрент бесплатно! Внесите свою лепту в развитие PiratBit!
    Комментировать посты могут только пользователи прошедшие не сложную регистрацию
    Показать сообщения:    

    Большой бизнес через торрент
    Скачать бесплатно Большой бизнес
    Большой бизнес скачать торрент
    Большой бизнес смотреть онлайн
    Cкачать фильм Большой бизнес бесплатно
    Большой бизнес скачать торрент в хорошем качестве
    Большой бизнес смотреть онлайн бесплатно в хорошем качестве


    Вы не можете начинать темы
    Вы не можете отвечать на сообщения
    Вы не можете редактировать свои сообщения
    Вы не можете удалять свои сообщения
    Вы не можете голосовать в опросах
    Вы не можете прикреплять файлы к сообщениям
    Вы можете скачивать файлы