Всегда рабочее зеркало без VPN и Proxy просто перед .vidak.icu напиши любое слово или цифру, Пример http://jt5y.vidak.icu

MVO

Лицензия

1 сезон

1

1 сезон

iTunes

1 сезон

13

1 сезон

Deluxe

pack

Рекомендуем

Пиратка

30

ВАЖНО

RePack

MK11

RePack

jed

RePack

fifa19

RePack

RDR2

RePack

NEED FOR SPEED™ PAYBACK

Кинопоиск HD

6 сезон

 Острые козырьки 6 сезон

Все сериалы

все сериалы на PB.wtf

RePack

FAR CRY 5

Anonymous, нам критически не хватает 2100 руб. на оплату серверов и переферии за МАЙ, помоги нам пожалуйста, вся надежда только на тебя. В благодарность мы отключим тебе всю рекламу на сайте!

×
  
Magnet ссылка

Рейд 2 / The Raid 2: Berandal (Гарет Эванс / Gareth Evans) [2014, Индонезия, США, боевик, триллер, криминал, BDRip 1080p,Дубляж - [Лицензия], RUS Transfer pb.wtf

Рейд 2 через торрент pb.wtf

Размер: 10.2 GB | Добавлен: 7 лет 8 мес. назад | Торрент скачан:244 раза
Смотреть онлайн Рейд 2 | Скачать    Ребята, помогите собрать деньги на оплату серверов!!!

26-09-2014 21:07 Рейд 2 Скачать торрент  

Рейд 2 / The Raid 2: Berandal

Год выпуска: 2014
Страна: Индонезия, США
Жанр: боевик, триллер, криминал
Продолжительность: 02:24:33
Перевод: Дубляж - [Лицензия]
Субтитры:нет
Режиссер: Гарет Эванс / Gareth Evans
В ролях: Ико Уайс (Rama), Арифин Путра (Uco), Тио Пакусодево (Bangun), Ока Антара (Eka), Алекс Аббад (Bejo), Чечеп Ариф Рахман (The Assassin), Джулия Эстелл (Alicia «Hammer Girl»), Вери Три Юлисман (Baseball Bat Man), Рюхэй Мацуда (Keichi), Кэнити Эндо (Hideaki Goto), Кадзуки Китамура (Ryuichi), Яян Рухьян (Prakoso)

Описание:

Из трех полицейских, выбравшихся из кровавого ада первой части, в живых остается только офицер Рама. Уволившись из спецназа, он пробует начать жизнь заново, но вскоре прошлое жестко напоминает о себе - преступники убивают его брата. Чтобы отомстить, он внедряется в мощный криминальный синдикат, где быстро поднимается до самых вершин бандитской иерархии. Врагов здесь еще больше, и каждый неверный шаг может оказаться последним. Здесь нет ни близких, ни друзей, ни любви, ни тоски, ни жалости!

Рейтинг
kinopoisk.ru: 7.577 (14 398)
imdb.com: 8.20 (44 720)
MPAA: R - Лицам до 17 лет обязательно присутствие взрослого

Качество: BDRip 1080p
Формат: MKV
Видео кодек: AVC
Аудио кодек:AC3
Видео: AVC, 1920x1080 (16:9), 9262 kbps, 25 fps, 0,179 bpp
Аудио: русский / AC3 / 5.1 / 48 kHz / 640 kbps / 16 bit |Дублированный|


Автор рипа: Сообщество:
Format : Matroska
Format version : Version 2
File size : 10.2 GiB
Duration : 2h 24mn
Overall bit rate : 10.1 Mbps
Movie name : Rejd 2.(2014).BDRip.1080p.[denis100]
Encoded date : UTC 2014-08-26 07:14:51
Writing application : mkvmerge v5.8.0 ('No Sleep / Pillow') built on Sep 2 2012 15:37:04
Writing library : libebml v1.2.3 + libmatroska v1.3.0

Video
ID : 1
Format : AVC
Format/Info : Advanced Video Codec
Format profile : High@L4.1
Format settings, CABAC : Yes
Format settings, ReFrames : 4 frames
Codec ID : V_MPEG4/ISO/AVC
Duration : 2h 24mn
Bit rate : 9 262 Kbps
Width : 1 920 pixels
Height : 1 080 pixels
Display aspect ratio : 16:9
Frame rate : 25.000 fps
Color space : YUV
Chroma subsampling : 4:2:0
Bit depth : 8 bits
Scan type : Progressive
Bits/(Pixel*Frame) : 0.179
Stream size : 9.35 GiB (92%)
Title : Rejd 2.(2014).BDRip.1080p.[denis100]
Writing library : x264 core 138 r2358 9e941d1
Encoding settings : cabac=1 / ref=4 / deblock=1:-3:-3 / analyse=0x3:0x133 / me=umh / subme=11 / psy=1 / psy_rd=1.00:0.00 / mixed_ref=1 / me_range=32 / chroma_me=1 / trellis=2 / 8x8dct=1 / cqm=0 / deadzone=21,11 / fast_pskip=0 / chroma_qp_offset=-2 / threads=6 / lookahead_threads=1 / sliced_threads=0 / nr=0 / decimate=1 / interlaced=0 / bluray_compat=0 / constrained_intra=0 / bframes=8 / b_pyramid=2 / b_adapt=2 / b_bias=0 / direct=3 / weightb=1 / open_gop=0 / weightp=2 / keyint=250 / keyint_min=25 / scenecut=40 / intra_refresh=0 / rc=crf / mbtree=0 / crf=19.0 / qcomp=0.60 / qpmin=0 / qpmax=69 / qpstep=4 / ip_ratio=1.40 / pb_ratio=1.30 / aq=1:1.00
Language : English
Default : Yes
Forced : No

Audio
ID : 2
Format : AC-3
Format/Info : Audio Coding 3
Mode extension : CM (complete main)
Codec ID : A_AC3
Duration : 2h 24mn
Bit rate mode : Constant
Bit rate : 640 Kbps
Channel(s) : 6 channels
Channel positions : Front: L C R, Side: L R, LFE
Sampling rate : 48.0 KHz
Bit depth : 16 bits
Compression mode : Lossy
Stream size : 662 MiB (6%)
Title : Дублированный
Language : Russian
Default : Yes
Forced : No

Menu
00:00:00.000 : en:Chapter 01
00:10:01.720 : en:Chapter 02
00:20:17.760 : en:Chapter 03
00:30:30.360 : en:Chapter 04
00:37:12.800 : en:Chapter 05
00:48:50.640 : en:Chapter 06
00:59:27.560 : en:Chapter 07
01:10:31.320 : en:Chapter 08
01:21:21.160 : en:Chapter 09
01:32:37.120 : en:Chapter 10
01:40:06.360 : en:Chapter 11
01:46:31.880 : en:Chapter 12
01:54:52.960 : en:Chapter 13
02:00:53.960 : en:Chapter 14
02:07:30.440 : en:Chapter 15
02:14:24.120 : en:Chapter 16
02:19:55.720 : en:Chapter 17
x264 [info]: frame I:1236 Avg QP:14.34 size:148284
x264 [info]: frame P:59005 Avg QP:15.91 size: 77428
x264 [info]: frame B:156585 Avg QP:17.54 size: 35165
pb.wtf



Скачать Рейд 2 через торрент http://i63.fastpic.ru/big/2014/0927/90/d981ee677f70296dc0b04cf9f5269d90.png Скачать, смотреть онлайн Рейд 2 бесплантно в хорошем качестве Описание: Из трех полицейских, выбравшихся из кровавого ада первой части, в живых остается только офицер Рама. Уволившись из спецназа, он ... 10 10 5
Торрент: Зарегистрирован [2014-09-26 21:07] · скачан: 244 раз
Статус: √ проверено
Размер: 10.2 GB
Как cкачать? Как скачать Рейд 2 через торрент | UTorrent

% Раздел Тема Автор DL S | L
Фильмы (Blu-ray, BD-Remux, HDDVD) [ 21.36 GB ] Рейд 2 / The Raid 2: Berandal [2014 Blu-Ray 1080i] [ ] [Rus Transfer] killermax2013 Скачать
1 | 0

28-11-2019 20:33  

Отключить всю рекламу на сайте

    Дорогой пользователь! Огромная просьба, поблагодарите релизера, оцените раздачу и оставьте свои комментарий, если Вы скачали Рейд 2 через торрент бесплатно!
    Комментировать посты могут только пользователи прошедшие не сложную регистрацию
    Показать сообщения:    

    Рейд 2 через торрент
    Скачать бесплатно Рейд 2
    Рейд 2 скачать торрент
    Рейд 2 смотреть онлайн
    Cкачать фильм Рейд 2 бесплатно
    Рейд 2 скачать торрент в хорошем качестве
    Рейд 2 смотреть онлайн бесплатно в хорошем качестве


    Вы не можете начинать темы
    Вы не можете отвечать на сообщения
    Вы не можете редактировать свои сообщения
    Вы не можете удалять свои сообщения
    Вы не можете голосовать в опросах
    Вы не можете прикреплять файлы к сообщениям
    Вы можете скачивать файлы