2 сезон

iTunes

MVO

1

2 сезон

iTunes

iTunes

1 сезон

RePack

30

Новинка

ВАЖНО

ИГРА 18+

pack

RePack

MK11
pack

Легкие деньги

RePack

jed

RePack

fifa19

RePack

RDR2

RePack

NEED FOR SPEED™ PAYBACK

4 сезон

9 сезон

Бесстыжие 9 сезон

Все сериалы

все сериалы на PB.wtf

RePack

FAR CRY 5

Anonymous, добрый вечер, мы не успеваем собрать деньги на оплату серверов за декабрь и январь, помогите нам пожалуйста в это трудное время. В качестве благодарности мы отключим Вам всю рекламу на сайте (укажите свой ник в строку Ваше имя)!

×
  
Magnet ссылка

Белль / Belle (Амма Асанте / Amma Asante) [2013, Великобритания, драма, HDRip, MVO] [Лицензия] pb.wtf

Белль через торрент pb.wtf

Размер: 2.05 GB | Добавлен: 6 лет 3 мес. назад | Торрент скачан:82 раза
Скачать  

27-09-2014 01:57 Белль Скачать торрент  

Белль / Belle


  • Год выпуска: 2013
  • Страна: Великобритания
  • Жанр: драма

  • Продолжительность: 01:43:50
  • Перевод: Профессиональный многоголосый закадровый [Лицензия]

  • Режиссер: Амма Асанте / Amma Asante
  • В ролях:

    Гугу Мбата-Роу (Dido Elizabeth Belle), Том Уилкинсон (Lord Mansfield), Миранда Ричардсон (Lady Ashford), Пенелопа Уилтон (Lady Mary Murray), Мэттью Гуд (Captain Sir John Lindsay), Эмили Уотсон (Lady Mansfield), Лорен Жюльен-Бокс (Young Dido), Наташа Уильямс (Poor Woman), Алан МакКенна (Harry), Кара Дженкинс (Young Elizabeth), Сара Гадон (Elizabeth Murray), Джеймс Нортон (Oliver Ashford)

  • Описание:
    Сюжет фильма основан на жизни Дайдо Элизабет Белль. Она была внебрачной дочерью капитана королевского флота Джона Линдси, а ее матерью была чернокожая женщина по имени Мария Белль.
  • Рейтинг:



  • Качество: HDRip
  • Формат: :AVI
  • Видео кодек: XviD
  • Аудио кодек: AC3
  • Видео: 720x304 (2.35:1), 1971 kbps, 23,976 fps, 0,376 bpp
  • Аудио №1: Русский 5.1 / 48 kHz / 384 kbps / 16 bit
  • Аудио №2: Английский 5.1 / 48 kHz / 448 kbps / 16 bit
  • Релиз от: GEKADOL

    Код:

    General
    Complete name                            : I:\Belle.2013.P.HDRip.2100MB.avi
    Format                                   : AVI
    Format/Info                              : Audio Video Interleave
    Format profile                           : OpenDML
    File size                                : 2.05 GiB
    Duration                                 : 1h 43mn
    Overall bit rate                         : 2 822 Kbps
    Writing application                      : VirtualDubMod 1.5.10.2 (build 2540/release)
    Writing library                          : VirtualDubMod build 2540/release

    Video
    ID                                       : 0
    Format                                   : MPEG-4 Visual
    Format profile                           : Advanced Simple@L5
    Format settings, BVOP                    : 2
    Format settings, QPel                    : No
    Format settings, GMC                     : No warppoints
    Format settings, Matrix                  : Custom
    Codec ID                                 : XVID
    Codec ID/Hint                            : XviD
    Duration                                 : 1h 43mn
    Bit rate                                 : 1 971 Kbps
    Width                                    : 720 pixels
    Height                                   : 304 pixels
    Display aspect ratio                     : 2.35:1
    Frame rate                               : 23.976 fps
    Color space                              : YUV
    Chroma subsampling                       : 4:2:0
    Bit depth                                : 8 bits
    Scan type                                : Progressive
    Compression mode                         : Lossy
    Bits/(Pixel*Frame)                       : 0.376
    Stream size                              : 1.43 GiB (70%)
    Writing library                          : XviD 1.2.1 (UTC 2008-12-04)

    Audio #1
    ID                                       : 1
    Format                                   : AC-3
    Format/Info                              : Audio Coding 3
    Mode extension                           : CM (complete main)
    Codec ID                                 : 2000
    Duration                                 : 1h 43mn
    Bit rate mode                            : Constant
    Bit rate                                 : 384 Kbps
    Channel(s)                               : 6 channels
    Channel positions                        : Front: L C R, Side: L R, LFE
    Sampling rate                            : 48.0 KHz
    Bit depth                                : 16 bits
    Compression mode                         : Lossy
    Stream size                              : 285 MiB (14%)
    Alignment                                : Split accross interleaves
    Interleave, duration                     : 42 ms (1.00 video frame)
    Interleave, preload duration             : 500 ms

    Audio #2
    ID                                       : 2
    Format                                   : AC-3
    Format/Info                              : Audio Coding 3
    Mode extension                           : CM (complete main)
    Codec ID                                 : 2000
    Duration                                 : 1h 43mn
    Bit rate mode                            : Constant
    Bit rate                                 : 448 Kbps
    Channel(s)                               : 6 channels
    Channel positions                        : Front: L C R, Side: L R, LFE
    Sampling rate                            : 48.0 KHz
    Bit depth                                : 16 bits
    Compression mode                         : Lossy
    Stream size                              : 333 MiB (16%)
    Alignment                                : Split accross interleaves
    Interleave, duration                     : 42 ms (1.00 video frame)
    Interleave, preload duration             : 500 ms


    Скриншоты:


    pb.wtf



  • Скачать Белль через торрент http://i65.fastpic.ru/big/2014/0927/ce/310ebe03e78d084cf5b510ab04cf2ece.jpg Скачать фильм Белль через торрент бесплантно в хорошем качестве Описание: Сюжет фильма основан на жизни Дайдо Элизабет Белль. Она была внебрачной дочерью капитана королевского флота Джона Линдси, а ее ... 8 10 1
    Торрент: Зарегистрирован [2014-09-27 01:57] · скачан: 82 раз
    Статус: √ проверено
    Размер: 2.05 GB
    Как cкачать? Как скачать Белль через торрент | UTorrent

    % Раздел Тема Автор DL S | L
    T Фильмы (мультфильмы) cо спонсором показа (Новинки AVI/MKV) [ 3.08 GB ] Джингл Белл / Jingle Belle [2018 Мюзикл WEB-DL 720p] MVO [AlphaProject] bober100 Скачать
    1 | 0
    T Фильмы (мультфильмы) cо спонсором показа (Новинки AVI/MKV) [ 699 MB ] Джингл Белл / Jingle Belle [2018 Мюзикл WEB-DLRip] MVO [AlphaProject] bober100 Скачать
    1 | 0
    Фильмы [HD 720p, 1080p] (Хороший звук DUB, MVO) [ 10.04 GB ] Белль и Себастьян: Друзья навек / Belle et Sébastien 3 le dernier chapitre [2017 BDRip 1080p] MVO [СВ Студия] + bober100 Скачать
    1 | 0
    Фильмы 2017 [DVDrip, WEB-DLRip, HDrip] (DUB, MVO) [ 1.42 GB ] Белль и Себастьян: Друзья навек / Belle et Sébastien 3 le dernier chapitre [2017 BDRip] bober100 Скачать
    4 | 1
    Фильмы 2013 [DVDrip, WEB-DLRip, HDrip] [ 1.46 GB ] Белль и Себастьян / Belle et Sébastien [2013 BDRip] killermax2013 Скачать
    4 | 0
    Фильмы [HD 720p, 1080p] (Хороший звук DUB, MVO) [ 7.75 GB ] Белль / Belle [2013 BDRip 1080p] MVO еnvy Скачать
    1 | 0

    28-11-2019 20:33  

    Отключить всю рекламу на сайте

      Дорогой пользователь! Огромная просьба, поблагодарите релизера, оцените раздачу и оставьте свои комментарий, если Вы скачали Белль через торрент бесплатно! Внесите свою лепту в развитие PiratBit!
      Комментировать посты могут только пользователи прошедшие не сложную регистрацию
      Показать сообщения:    

      Белль через торрент
      Скачать бесплатно Белль
      Белль скачать торрент
      Белль смотреть онлайн
      Cкачать фильм Белль бесплатно
      Белль скачать торрент в хорошем качестве
      Белль смотреть онлайн бесплатно в хорошем качестве


      Вы не можете начинать темы
      Вы не можете отвечать на сообщения
      Вы не можете редактировать свои сообщения
      Вы не можете удалять свои сообщения
      Вы не можете голосовать в опросах
      Вы не можете прикреплять файлы к сообщениям
      Вы можете скачивать файлы