Ссылка на приватное зеркало нашего сайта всего за 1$. Внимание количество ограничено!!!

2 сезон

iTunes

1 сезон

1

iTunes

iTunes

iTunes

1 сезон

RePack

30

ИГРА 18+

pack

ВАЖНО

!!Акция!!

Alien_RageХит недели

RePack

MK11
pack

Забери бонус

RePack

jed

!!Акция!!

Alien_Rage

RePack

fifa19

RePack

Assassins Creed: Odyssey

RePack

NEED FOR SPEED™ PAYBACK

4 сезон

9 сезон

Бесстыжие 9 сезон

Все сериалы

все сериалы на PB.wtf

RePack

FAR CRY 5
  

Леон / Léon, The Professional (Люк Бессон) [1994 г., триллер, драма, криминал, DVD9] pb.wtf

Леон через торрент pb.wtf

Размер: 7.41 GB | Добавлен: 6 лет назад | Торрент скачан:106 раз
Скачать  

27-09-2014 10:27 Леон Скачать торрент  

Леон / Léon, The Professional

Год выпуска: 1994
Страна: Франция
Жанр: триллер, драма, криминал
Продолжительность: 02:12:51
Перевод: Профессиональный (многоголосый, закадровый) | «Киномания»

  • Режиссер: Люк Бессон
  • Продюсер: Клод Бессон, Джон Гарлэнд, Бернард Гренет
  • Сценарий: Люк Бессон


В ролях: Жан Рено, Гари Олдман, Натали Портман, Дэнни Айелло, Питер Эппел, Майкл Бадалуччо, Эллен Грин, Фрэнк Сенгер

Описание: Профессиональный убийца Леон, не знающий пощады и жалости, знакомится со своей очаровательной соседкой Матильдой, семью которой расстреливают полицейские, замешанные в торговле наркотиками. Благодаря этому знакомству он впервые испытывает чувство любви, но…

  • Качество: DVD9
  • Формат: DVD Video
  • Видео кодек: MPEG2
  • Аудио кодек:
  • Видео: MPEG 2, 720x480 (16:9), 23.976 fps, 9 800 Kbps (0.705 bit/pixel)
  • Аудио #1: AC-3, 48.0 KHz, 6 ch, 448 Kbps, CBR | «Киномания»
  • Аудио #2: AC-3, 48.0 KHz, 6 ch, 448 Kbps, CBR | Дмитрий «Гоблин» Пучков
  • Аудио #3: AC-3, 48.0 KHz, 6 ch, 448 Kbps, CBR | Андрей Гаврилов
  • Аудио #4: AC-3, 48.0 KHz, 6 ch, 448 Kbps, CBR | Оригинал
  • Субтитры: Английские, Русские, Французские, Испанские, Португальские


Скриншоты меню

скриншот  скриншот   скриншот  скриншот  скриншот  


Скриншоты

скриншот   скриншот   скриншот   скриншот   скриншот  


Код:

Title: Leon_The_Professional_BD-DVD9
Size: 7.41 Gb ( 7 765 256,00 KBytes ) - DVD-9
Enabled regions: 1, 2, 3, 4, 5, 6, 7, 8

VTS_01 :
  Play Length: 02:12:42
  Video: NTSC 16:9 (720x480) VBR, Auto Letterboxed
  Audio:
      Russian (Dolby AC3, 6 ch)
      Russian (Dolby AC3, 6 ch)
      Russian (Dolby AC3, 6 ch)
      English (Dolby AC3, 6 ch)
  Subtitles:
      Russian
      English
      Francais
      Espanol
      Portugues
      English

VTS_02 :
  Play Length: 00:00:15
  Video: NTSC 16:9 (720x480) VBR, Auto Pan&Scan
  Audio:
      English (Dolby AC3, 6 ch)

* Menus Information *

VIDEO_TS Menu
Video:
      NTSC 4:3 (720x480) VBR
      Auto Pan&Scan, Auto Letterboxed
Russian Language Unit :
      Title Menu

VTS_01 Menu
Video:
      NTSC 16:9 (720x480) VBR
      Auto Pan&Scan
Audio:
      Not specified (Dolby AC3, 2 ch)
Russian Language Unit :
      Root Menu

VTS_02 Menu
Video:
      NTSC 4:3 (720x480) VBR
      Auto Pan&Scan, Auto Letterboxed
Language Unit :
      Chapter (PTT) Menu


Код:

General
Complete name                            : F:\PC Share\Leon_The_Professional_BD-DVD9\VIDEO_TS\VTS_01_1.VOB
Format                                   : MPEG-PS
File size                                : 1 024 MiB
Duration                                 : 18mn 32s
Overall bit rate mode                    : Variable
Overall bit rate                         : 7 721 Kbps

Video
ID                                       : 224 (0xE0)
Format                                   : MPEG Video
Format version                           : Version 2
Format profile                           : Main@Main
Format settings, BVOP                    : Yes
Format settings, Matrix                  : Custom
Format settings, GOP                     : Variable
Duration                                 : 18mn 32s
Bit rate mode                            : Variable
Bit rate                                 : 5 839 Kbps
Maximum bit rate                         : 9 800 Kbps
Width                                    : 720 pixels
Height                                   : 480 pixels
Display aspect ratio                     : 16:9
Frame rate                               : 23.976 fps
Standard                                 : NTSC
Color space                              : YUV
Chroma subsampling                       : 4:2:0
Bit depth                                : 8 bits
Scan type                                : Progressive
Scan order                               : 2:3 Pulldown
Compression mode                         : Lossy
Bits/(Pixel*Frame)                       : 0.705
Time code of first frame                 : 01:00:00:00
Time code source                         : Group of pictures header
Stream size                              : 774 MiB (76%)

Audio #1
ID                                       : 189 (0xBD)-128 (0x80)
Format                                   : AC-3
Format/Info                              : Audio Coding 3
Mode extension                           : CM (complete main)
Format settings, Endianness              : Big
Muxing mode                              : DVD-Video
Duration                                 : 18mn 32s
Bit rate mode                            : Constant
Bit rate                                 : 448 Kbps
Channel(s)                               : 6 channels
Channel positions                        : Front: L C R, Side: L R, LFE
Sampling rate                            : 48.0 KHz
Bit depth                                : 16 bits
Compression mode                         : Lossy
Stream size                              : 59.4 MiB (6%)

Audio #2
ID                                       : 189 (0xBD)-129 (0x81)
Format                                   : AC-3
Format/Info                              : Audio Coding 3
Mode extension                           : CM (complete main)
Format settings, Endianness              : Big
Muxing mode                              : DVD-Video
Duration                                 : 18mn 32s
Bit rate mode                            : Constant
Bit rate                                 : 384 Kbps
Channel(s)                               : 6 channels
Channel positions                        : Front: L C R, Side: L R, LFE
Sampling rate                            : 48.0 KHz
Bit depth                                : 16 bits
Compression mode                         : Lossy
Stream size                              : 50.9 MiB (5%)

Audio #3
ID                                       : 189 (0xBD)-130 (0x82)
Format                                   : AC-3
Format/Info                              : Audio Coding 3
Mode extension                           : CM (complete main)
Format settings, Endianness              : Big
Muxing mode                              : DVD-Video
Duration                                 : 18mn 32s
Bit rate mode                            : Constant
Bit rate                                 : 448 Kbps
Channel(s)                               : 6 channels
Channel positions                        : Front: L C R, Side: L R, LFE
Sampling rate                            : 48.0 KHz
Bit depth                                : 16 bits
Compression mode                         : Lossy
Stream size                              : 59.4 MiB (6%)

Audio #4
ID                                       : 189 (0xBD)-131 (0x83)
Format                                   : AC-3
Format/Info                              : Audio Coding 3
Mode extension                           : CM (complete main)
Format settings, Endianness              : Big
Muxing mode                              : DVD-Video
Duration                                 : 18mn 32s
Bit rate mode                            : Constant
Bit rate                                 : 448 Kbps
Channel(s)                               : 6 channels
Channel positions                        : Front: L C R, Side: L R, LFE
Sampling rate                            : 48.0 KHz
Bit depth                                : 16 bits
Compression mode                         : Lossy
Stream size                              : 59.4 MiB (6%)

Text #1
ID                                       : 189 (0xBD)-32 (0x20)
Format                                   : RLE
Format/Info                              : Run-length encoding
Muxing mode                              : DVD-Video

Text #2
ID                                       : 189 (0xBD)-33 (0x21)
Format                                   : RLE
Format/Info                              : Run-length encoding
Muxing mode                              : DVD-Video

Text #3
ID                                       : 189 (0xBD)-34 (0x22)
Format                                   : RLE
Format/Info                              : Run-length encoding
Muxing mode                              : DVD-Video

Text #4
ID                                       : 189 (0xBD)-35 (0x23)
Format                                   : RLE
Format/Info                              : Run-length encoding
Muxing mode                              : DVD-Video

Text #5
ID                                       : 189 (0xBD)-36 (0x24)
Format                                   : RLE
Format/Info                              : Run-length encoding
Muxing mode                              : DVD-Video

Menu

pb.wtf



Скачать Леон через торрент http://i64.fastpic.ru/big/2014/0927/70/ca9af43ea209de73fb671e30eec07070.png Скачать фильм Леон через торрент бесплантно в хорошем качестве Описание: Профессиональный убийца Леон, не знающий пощады и жалости, знакомится со своей очаровательной соседкой Матильдой, семью которой ... 9.9 10 8
Info! Золотая раздача, скачанное не засчитывается.
Торрент: Зарегистрирован [2014-09-27 10:27] · скачан: 106 раз
Статус: √ проверено
Размер: 7.41 GB
Как cкачать? Как скачать Леон через торрент | qTorrent

% Раздел Тема Автор DL S | L
Ultra HD (UHD: 2K, 4K, 8K) — видео сверхвысокой чёткости [ 39.98 GB ] Леон / Профессионал / Léon / The Professional [1994 UHD BDRip 2160p] MVO + 2xAVO [Режиссерская версия] sheker187 Скачать
1 | 0
Ultra HD (UHD: 2K, 4K, 8K) — видео сверхвысокой чёткости [ 56.71 GB ] Леон / Профессионал / Léon / The Professional [1994 UHD BDRemux 2160p] 2xAVO [Пучков Рукин] +MVO [ R5] [Tеатральная версия] bober100 Скачать
1 | 0

28-11-2019 20:33  

Отключить всю рекламу на сайте

02-12-2017 21:21 Леон Скачать торрент  

Раздающемуpb.wtf



    Дорогой пользователь! Огромная просьба, поблагодарите релизера, оцените раздачу и оставьте свои комментарий, если Вы скачали Леон через торрент бесплатно! Внесите свою лепту в развитие PiratBit!
    Комментировать посты могут только пользователи прошедшие не сложную регистрацию
    Показать сообщения:    

    Леон через торрент
    Скачать бесплатно Леон
    Леон скачать торрент
    Леон смотреть онлайн
    Cкачать фильм Леон бесплатно
    Леон скачать торрент в хорошем качестве
    Леон смотреть онлайн бесплатно в хорошем качестве


    Вы не можете начинать темы
    Вы не можете отвечать на сообщения
    Вы не можете редактировать свои сообщения
    Вы не можете удалять свои сообщения
    Вы не можете голосовать в опросах
    Вы не можете прикреплять файлы к сообщениям
    Вы можете скачивать файлы