2 сезон

iTunes

MVO

1

2 сезон

iTunes

iTunes

1 сезон

RePack

30

Ultimate

ВАЖНО

ИГРА 18+

pack

RePack

MK11
pack

Легкие деньги

RePack

jed

RePack

fifa19

RePack

RDR2

RePack

NEED FOR SPEED™ PAYBACK

4 сезон

9 сезон

Бесстыжие 9 сезон

Все сериалы

все сериалы на PB.wtf

RePack

FAR CRY 5

Anonymous, доброй ночи, мы не успеваем собрать деньги на оплату серверов за декабрь и январь, помогите нам пожалуйста в это трудное время. В качестве благодарности мы отключим Вам всю рекламу на сайте (укажите свой ник в строку Ваше имя)!

×
  
Magnet ссылка

Ловушка для невесты / The Decoy Bride (Шери Фоксон) [2011, драма, мелодрама, комедия, BDRip, Профессиональный многоголосый [Лицензия] pb.wtf

Ловушка для невесты через торрент pb.wtf

Размер: 1.46 GB | Добавлен: 6 лет 3 мес. назад | Торрент скачан:70 раз
Скачать  

27-09-2014 10:53 Ловушка для невесты Скачать торрент  

Ловушка для невесты / The Decoy Bride


Год выпуска: 2011
Страна: Великобритания
Жанр:драма, мелодрама, комедия
Продолжительность:01:29:04
Перевод:Профессиональный многоголосый [Лицензия]
Режиссер:Шери Фоксон

  • В ролях:

    Элис Ив (Lara Tyler), Дэвид Теннант (James Neil Arber), Келли Макдоналд (Katie), Хамиш Кларк (Angus), Джеймс Флит (William), Дилан Моран (Charley), Сэлли Филлипс (Emma), Майкл Юри (Steve Korbitz), Федерико Кастеллуччо (Marco Ballani), Дэнни Бэйдж (Hotel Doorman), Ханна Борн (Chloe), Морин Битти (Iseabail Nic Aoidh)

  • Описание:
    Фильм рассказывает об актрисе-суперзвезде Ларе, которая хочет выйти замуж за своего привлекательного британского бойфренда Джеймса и считает, что сонный шотландский островок Хегг является единственным местом в мире, где их не найдут папарацци. Но папарацци их находят и, чтобы сбить их со следа, Лара решает найти подсадную невесту, на роль которой по ее мнению идеально подойдет местная девушка Кэти. Но когда Кэти и Джеймс встречаются, «летят искры».

  • Мировая премьера:14 мая 2011

    Качество: BDRip
    Формат:AVI
    Видео кодек: XviD
    Аудио кодек:AC3
    Видео: XviD, 720x304 (2.35:1), 1946 kbps, 23,976 fps, 0,371 bpp
    Аудио: AC3 / 5.1 / 48 kHz / 384 kbps / 16 bit
    Релиз от -
    Автор рипа: The next

    Код:

    General
    Complete name                            : D:\Торенты\Lovushka.dlya.nevesty.2011.RUS.BDRip.XviD.AC3.-HQCLUB.avi
    Format                                   : AVI
    Format/Info                              : Audio Video Interleave
    File size                                : 1.46 GiB
    Duration                                 : 1h 29mn
    Overall bit rate                         : 2 340 Kbps
    Movie name                               : Ловушка для невесты / The Decoy Bride (2011) BDRip
    Director                                 : The next
    Writing application                      : VirtualDubMod 1.5.10.2 (build 2542/release)

    Comment                                  : 16.05.2012

    Video
    ID                                       : 0
    Format                                   : MPEG-4 Visual
    Format profile                           : Advanced Simple@L5
    Format settings, BVOP                    : 1
    Format settings, QPel                    : No
    Format settings, GMC                     : No warppoints
    Format settings, Matrix                  : Custom
    Codec ID                                 : XVID
    Codec ID/Hint                            : XviD
    Duration                                 : 1h 29mn
    Bit rate                                 : 1 947 Kbps
    Width                                    : 720 pixels
    Height                                   : 304 pixels
    Display aspect ratio                     : 2.35:1
    Frame rate                               : 23.976 fps
    Color space                              : YUV
    Chroma subsampling                       : 4:2:0
    Bit depth                                : 8 bits
    Scan type                                : Progressive
    Compression mode                         : Lossy
    Bits/(Pixel*Frame)                       : 0.371
    Stream size                              : 1.21 GiB (83%)
    Writing library                          : XviD 72

    Audio
    ID                                       : 1
    Format                                   : AC-3
    Format/Info                              : Audio Coding 3
    Mode extension                           : CM (complete main)
    Codec ID                                 : 2000
    Duration                                 : 1h 29mn
    Bit rate mode                            : Constant
    Bit rate                                 : 384 Kbps
    Channel(s)                               : 6 channels
    Channel positions                        : Front: L C R, Side: L R, LFE
    Sampling rate                            : 48.0 KHz
    Bit depth                                : 16 bits
    Compression mode                         : Lossy
    Stream size                              : 245 MiB (16%)
    Alignment                                : Split accross interleaves
    Interleave, duration                     : 42 ms (1.00 video frame)
    Interleave, preload duration             : 500 ms

    Скриншоты:



    © Оформление by Ravenpb.wtf



  • Скачать Ловушка для невесты через торрент http://pic.kartinco.top/images/6/stazu.jpg Скачать фильм Ловушка для невесты через торрент бесплантно в хорошем качестве Описание:Фильм рассказывает об актрисе-суперзвезде Ларе, которая хочет выйти замуж за своего привлекательного британского бойфренда Джеймса ... 10 10 2
    Торрент: Зарегистрирован [2014-09-27 10:53] · скачан: 70 раз
    Статус: √ проверено
    Размер: 1.46 GB
    Как cкачать? Как скачать Ловушка для невесты через торрент | UTorrent

    % Раздел Тема Автор DL S | L
    Фильмы (DVD фильмы) [ 4.16 GB ] Ловушка для невесты / The Decoy Bride [2011 DVD5] R5 voovaz Скачать
    1 | 0

    28-11-2019 20:33  

    Отключить всю рекламу на сайте

      Дорогой пользователь! Огромная просьба, поблагодарите релизера, оцените раздачу и оставьте свои комментарий, если Вы скачали Ловушка для невесты через торрент бесплатно! Внесите свою лепту в развитие PiratBit!
      Комментировать посты могут только пользователи прошедшие не сложную регистрацию
      Показать сообщения:    

      Ловушка для невесты через торрент
      Скачать бесплатно Ловушка для невесты
      Ловушка для невесты скачать торрент
      Ловушка для невесты смотреть онлайн
      Cкачать фильм Ловушка для невесты бесплатно
      Ловушка для невесты скачать торрент в хорошем качестве
      Ловушка для невесты смотреть онлайн бесплатно в хорошем качестве


      Вы не можете начинать темы
      Вы не можете отвечать на сообщения
      Вы не можете редактировать свои сообщения
      Вы не можете удалять свои сообщения
      Вы не можете голосовать в опросах
      Вы не можете прикреплять файлы к сообщениям
      Вы можете скачивать файлы