MEGA SALE -50% FORZA HORIZON 4 ULTIMATE+ВСЕ DLC+ОНЛАЙН всего за 599р. 299 руб. (супер цена). Внимание количество ограничено!!!

iTunes

1+1

iTunes

мы

iTunes

1

iTunes

Чернобыль

iTunes

Ральф против интернета

Лицензия

ПШазам

Лицензия

Игра престолов

Лицензия

30
pack

ВАЖНО

!!Акция!!

Alien_RageХит недели

RePack

Resident Evil 21

ИГРА 18+

pack

RePack

Metro:Exodus

!!Акция!!

Alien_Rage

RePack

fifa19

RePack

Assassins Creed: Odyssey

RePack

NEED FOR SPEED™ PAYBACK

3 сезон

9 сезон

Бесстыжие 9 сезон

Все сериалы

все сериалы на PB.wtf

RePack

FAR CRY 5
Ребята, катастрофически не хватает 7730р. для оплаты серверов за АВГУСТ (всвязи с блокировками трафик упал в 3 раза), 1-2р., выручайте.
  

Бойцовая рыбка / Rumble Fish (Френсис Форд Коппола) [1983, драма, BDRip, Профессиональный многоголосый+AVO] pb.wtf

Бойцовая рыбка через торрент pb.wtf

Размер: 1.45 GB | Добавлен: 4 года 11 мес. назад | Торрент скачан:98 раз
Скачать  

27-09-2014 10:59 Бойцовая рыбка Скачать торрент  

Бойцовая рыбка / Rumble Fish
«Расти Джеймс никак не может достичь славы своего брата. Брат не может от неё избавиться»

Год выпуска: 1983
Страна: США
Жанр:драма
Продолжительность:01:34:13
Перевод:Профессиональный многоголосый+AVO
Субтитры: русские , английские✦ скачать отдельно (Жмите)
Режиссер:Френсис Форд Коппола

  • В ролях:

    Мэтт Диллон (Rusty James), Микки Рурк (The Motorcycle Boy), Дайан Лэйн (Patty), Деннис Хоппер (Father), Дайана Скаруид (Cassandra), Винсент Спано (Steve), Николас Кейдж (Smokey), Крис Пенн (B.J. Jackson), Лоренс Фишбёрн (Midget), Уильям Смит (Patterson the Cop), Майкл Хиггинс (Mr. Harrigan), Гленн Уитроу (Biff Wilcox)

  • Описание:
    Экранизация новеллы американской писательницы С. Э. Хинтон. История, повествующая о двух братьях, которых давным-давно бросила мать, и они живут с отцом-алкоголиком в провинциальном тихом городке. Старший брат по прозвищу Мотоциклист, завоевавший славу уличного Короля среди молодежи родного города, уезжает из дома на своем мотоцикле в поисках лучшей жизни. Младший, Расти Джеймс, стремится повторить путь брата в преступной среде городка и с нетерпением ждет его возвращения. И однажды Мотоциклист возвращается, но уже совсем другим.

  • Мировая премьера:7 октября 1983

    Качество: BDRip
    Формат:AVI
    Видео кодек: XviD
    Аудио кодек:AC3
    Видео: XviD, 704x384 (16:9), 1807 kbps, 23,976 fps, 0,279 bpp
    Аудио №1: AC3 / 2.0 / 48 kHz / 192 kbps / (MVO)
    Аудио №2: AC3 / 2.0 / 48 kHz / 192 kbps / (MVO.ORT)
    Аудио #3: 48 kHz, AC3 Dolby Digital, 2/0 (L,R) ch, ~192 kbps avg (AVO.UNKNOWN)✦ скачать отдельно (Жмите)
    Аудио #4: 48 kHz, AC3 Dolby Digital, 3/2 (L,C,R,l,r) + LFE ch, ~384 kbps avg (ENG)✦ скачать отдельно (Жмите)
    Релиз от -
    Автор рипа: sociolog_melvas

    Код:

    General
    Complete name                            : D:\Торенты\Bojcovaya.rybka.1983.DUALRUS.BDRip.XviD.AC3.-HQCLUB.avi
    Format                                   : AVI
    Format/Info                              : Audio Video Interleave
    File size                                : 1.45 GiB
    Duration                                 : 1h 34mn
    Overall bit rate                         : 2 205 Kbps
    Movie name                               : Бойцовая рыбка / Rumble Fish (1983) BDRip
    Director                                 : sociolog_melvas
    Genre                                    : драма
    Writing application                      : VirtualDubMod 1.5.10.2 (build 2540/release)

    Comment                                  : 21.09.2014

    Video
    ID                                       : 0
    Format                                   : MPEG-4 Visual
    Format profile                           : Advanced Simple@L5
    Format settings, BVOP                    : 1
    Format settings, QPel                    : No
    Format settings, GMC                     : No warppoints
    Format settings, Matrix                  : Custom
    Codec ID                                 : XVID
    Codec ID/Hint                            : XviD
    Duration                                 : 1h 34mn
    Bit rate                                 : 1 807 Kbps
    Width                                    : 704 pixels
    Height                                   : 384 pixels
    Display aspect ratio                     : 16:9
    Frame rate                               : 23.976 fps
    Color space                              : YUV
    Chroma subsampling                       : 4:2:0
    Bit depth                                : 8 bits
    Scan type                                : Progressive
    Compression mode                         : Lossy
    Bits/(Pixel*Frame)                       : 0.279
    Stream size                              : 1.19 GiB (82%)
    Writing library                          : XviD 65

    Audio #1
    ID                                       : 1
    Format                                   : AC-3
    Format/Info                              : Audio Coding 3
    Mode extension                           : CM (complete main)
    Codec ID                                 : 2000
    Duration                                 : 1h 34mn
    Bit rate mode                            : Constant
    Bit rate                                 : 192 Kbps
    Channel(s)                               : 2 channels
    Channel positions                        : Front: L R
    Sampling rate                            : 48.0 KHz
    Bit depth                                : 16 bits
    Compression mode                         : Lossy
    Stream size                              : 129 MiB (9%)
    Alignment                                : Split accross interleaves
    Interleave, duration                     : 42 ms (1.00 video frame)
    Interleave, preload duration             : 500 ms

    Audio #2
    ID                                       : 2
    Format                                   : AC-3
    Format/Info                              : Audio Coding 3
    Mode extension                           : CM (complete main)
    Codec ID                                 : 2000
    Duration                                 : 1h 34mn
    Bit rate mode                            : Constant
    Bit rate                                 : 192 Kbps
    Channel(s)                               : 2 channels
    Channel positions                        : Front: L R
    Sampling rate                            : 48.0 KHz
    Bit depth                                : 16 bits
    Compression mode                         : Lossy
    Stream size                              : 129 MiB (9%)
    Alignment                                : Split accross interleaves
    Interleave, duration                     : 42 ms (1.00 video frame)
    Interleave, preload duration             : 500 ms

    Скриншоты:



    © Оформление by Ravenpb.wtf



  • Скачать Бойцовая рыбка через торрент http://pic.kartinco.top/images/6/stazu.jpg Скачать фильм Бойцовая рыбка через торрент бесплантно в хорошем качестве Описание:Экранизация новеллы американской писательницы С. Э. Хинтон. История, повествующая о двух братьях, которых давным-давно бросила ... 10 10 2
    Торрент: Зарегистрирован [2014-09-27 10:59] · скачан: 98 раз
    Статус: √ проверено
    Размер: 1.45 GB
    Как cкачать? Как скачать Бойцовая рыбка через торрент | qTorrent

    % Раздел Тема Автор DL S | L
    Фильмы до 2000 г. [ 1.45 GB ] Бойцовая рыбка / Rumble Fish [1983 HDRip] 2x[MVO] killermax2013 Скачать
    1 | 0
    Фильмы с авторской озвучкой [ 1.35 GB ] Бойцовая рыбка / Rumble Fish [1983 BDRip] [AVO] killermax2013 Скачать
    1 | 0
    Фильмы с авторской озвучкой [ 1.45 GB ] Бойцовая рыбка / Rumble Fish [1983 HDRip] [AVO] killermax2013 Скачать
    2 | 0


    >> Регистрируемся здесь <<






    Отзывы и комментарии о схеме читаем и пишем здесь: ---> Отзывы и комментарии о схеме

    Новые благодарочки в телеграм довольных пользователей:
    скриншот   скриншот   скриншот   скриншот   скриншот
      Дорогой пользователь! Огромная просьба, поблагодарите релизера, оцените раздачу и оставьте свои комментарий, если Вы скачали Бойцовая рыбка через торрент бесплатно! Внесите свою лепту в развитие PiratBit!
      Комментировать посты могут только пользователи прошедшие не сложную регистрацию
      Показать сообщения:    

      Бойцовая рыбка через торрент
      Скачать бесплатно Бойцовая рыбка
      Бойцовая рыбка скачать торрент
      Бойцовая рыбка смотреть онлайн
      Cкачать фильм Бойцовая рыбка бесплатно
      Бойцовая рыбка скачать торрент в хорошем качестве
      Бойцовая рыбка смотреть онлайн бесплатно в хорошем качестве


      Вы не можете начинать темы
      Вы не можете отвечать на сообщения
      Вы не можете редактировать свои сообщения
      Вы не можете удалять свои сообщения
      Вы не можете голосовать в опросах
      Вы не можете прикреплять файлы к сообщениям
      Вы можете скачивать файлы