MEGA SALE -50% FORZA HORIZON 4 ULTIMATE+ВСЕ DLC+ОНЛАЙН всего за 599р. 299 руб. (супер цена). Внимание количество ограничено!!!

iTunes

1+1

iTunes

мы

iTunes

1

iTunes

Чернобыль

iTunes

Ральф против интернета

Лицензия

ПШазам

Лицензия

Игра престолов

Лицензия

30
pack

ВАЖНО

!!Акция!!

Alien_RageХит недели

RePack

Resident Evil 21

ИГРА 18+

pack

RePack

Metro:Exodus

!!Акция!!

Alien_Rage

RePack

fifa19

RePack

Assassins Creed: Odyssey

RePack

NEED FOR SPEED™ PAYBACK

3 сезон

9 сезон

Бесстыжие 9 сезон

Все сериалы

все сериалы на PB.wtf

RePack

FAR CRY 5
Ребята, катастрофически не хватает 7730р. для оплаты серверов за ИЮЛЬ (всвязи с блокировками трафик упал в 3 раза), 1-2р., выручайте.
  

Блеф Кугана / Coogan's Bluff (Дон Сигел) [1968, боевик, триллер, драма, BDRip, Профессиональный многоголосый] pb.wtf

Блеф Кугана через торрент pb.wtf

Размер: 1.45 GB | Добавлен: 4 года 10 мес. назад | Торрент скачан:20 раз
Скачать  

27-09-2014 11:20 Блеф Кугана Скачать торрент  

Блеф Кугана / Coogan's Bluff
«A Prisoner On the Loose, A Cop Over the Edge. This Town Ain't Big Enough for the Both of Them»

Год выпуска: 1968
Страна: США
Жанр:боевик, триллер, драма, криминал, вестерн
Продолжительность:01:34:18
Перевод:Профессиональный многоголосый
Режиссер:Дон Сигел

  • В ролях:

    Клинт Иствуд (Coogan), Ли Дж. Кобб (Lt. McElroy), Сьюзен Кларк (Julie Roth), Тиша Стерлинг (Linny Raven), Дон Страуд (James Ringerman), Бетти Филд (Ellen Ringerman), Том Талли (Sheriff McCrea), Мелоди Джонсон (Millie), Джеймс Эдвардс (Sgt. Jackson), Руди Диас (Running Bear), Дэвид Дойл (Pushie), Луис Зорик (Taxi Driver)

  • Описание:
    Аризонский шериф приезжает в Нью-Йорк, чтобы показать местным полицейским, как надо выслеживать разыскиваемого преступника.

  • Мировая премьера:2 октября 1968

    Качество: BDRip
    Формат:AVI
    Видео кодек: XviD
    Аудио кодек:AC3
    Видео: XviD, 704x384 (16:9), 2001 kbps, 23,976 fps, 0,309 bpp
    Аудио: AC3 / 2.0 / 48 kHz / 192 kbps / 16 bit
    Релиз от -
    Автор рипа: kingsize87

    Код:

    General
    Complete name                            : D:\Торенты\Blef.Kugana.1968.RUS.BDRip.XviD.AC3.-HQCLUB.avi
    Format                                   : AVI
    Format/Info                              : Audio Video Interleave
    File size                                : 1.45 GiB
    Duration                                 : 1h 34mn
    Overall bit rate                         : 2 203 Kbps
    Movie name                               : Блеф Кугана / Coogan's Bluff (1968) BDRip
    Director                                 : kingsize87
    Writing application                      : VirtualDubMod 1.5.10.2 (build 2540/release)
    Copyright                                : HQCLUB
    Comment                                  : 23.09.2014

    Video
    ID                                       : 0
    Format                                   : MPEG-4 Visual
    Format profile                           : Advanced Simple@L5
    Format settings, BVOP                    : 1
    Format settings, QPel                    : No
    Format settings, GMC                     : No warppoints
    Format settings, Matrix                  : Custom
    Codec ID                                 : XVID
    Codec ID/Hint                            : XviD
    Duration                                 : 1h 34mn
    Bit rate                                 : 2 001 Kbps
    Width                                    : 704 pixels
    Height                                   : 384 pixels
    Display aspect ratio                     : 16:9
    Frame rate                               : 23.976 fps
    Color space                              : YUV
    Chroma subsampling                       : 4:2:0
    Bit depth                                : 8 bits
    Scan type                                : Progressive
    Compression mode                         : Lossy
    Bits/(Pixel*Frame)                       : 0.309
    Stream size                              : 1.32 GiB (91%)
    Writing library                          : XviD 65

    Audio
    ID                                       : 1
    Format                                   : AC-3
    Format/Info                              : Audio Coding 3
    Mode extension                           : CM (complete main)
    Codec ID                                 : 2000
    Duration                                 : 1h 34mn
    Bit rate mode                            : Constant
    Bit rate                                 : 192 Kbps
    Channel(s)                               : 2 channels
    Channel positions                        : Front: L R
    Sampling rate                            : 48.0 KHz
    Bit depth                                : 16 bits
    Compression mode                         : Lossy
    Stream size                              : 130 MiB (9%)
    Alignment                                : Split accross interleaves
    Interleave, duration                     : 42 ms (1.00 video frame)
    Interleave, preload duration             : 500 ms

    Скриншоты:



    © Оформление by Ravenpb.wtf



  • Скачать Блеф Кугана через торрент http://pic.kartinco.top/images/6/stazu.jpg Скачать фильм Блеф Кугана через торрент бесплантно в хорошем качестве Описание:Аризонский шериф приезжает в Нью-Йорк, чтобы показать местным полицейским, как надо выслеживать разыскиваемого преступника.Мировая ... 10 10 1
    Торрент: Зарегистрирован [2014-09-27 11:20] · скачан: 20 раз
    Статус: √ проверено
    Размер: 1.45 GB
    Как cкачать? Как скачать Блеф Кугана через торрент | qTorrent


    >> Регистрируемся здесь <<






    Отзывы и комментарии о схеме читаем и пишем здесь: ---> Отзывы и комментарии о схеме

    Новые благодарочки в телеграм довольных пользователей:
    скриншот   скриншот   скриншот   скриншот   скриншот
      Дорогой пользователь! Огромная просьба, поблагодарите релизера, оцените раздачу и оставьте свои комментарий, если Вы скачали Блеф Кугана через торрент бесплатно! Внесите свою лепту в развитие PiratBit!
      Комментировать посты могут только пользователи прошедшие не сложную регистрацию
      Показать сообщения:    

      Блеф Кугана через торрент
      Скачать бесплатно Блеф Кугана
      Блеф Кугана скачать торрент
      Блеф Кугана смотреть онлайн
      Cкачать фильм Блеф Кугана бесплатно
      Блеф Кугана скачать торрент в хорошем качестве
      Блеф Кугана смотреть онлайн бесплатно в хорошем качестве


      Вы не можете начинать темы
      Вы не можете отвечать на сообщения
      Вы не можете редактировать свои сообщения
      Вы не можете удалять свои сообщения
      Вы не можете голосовать в опросах
      Вы не можете прикреплять файлы к сообщениям
      Вы можете скачивать файлы