Лицензия

MVO

1

1 сезон

Лицензия

Лицензия

13

MVO

1 сезон

Deluxe Edition

pack

Рекомендуем

30

Repack

ВАЖНО

ВАЖНО

Ghostwire

RePack

jed

RePack

fifa19

RePack

RDR2

RePack

NEED FOR SPEED™ PAYBACK

RePack

Кинопоиск HD

 Острые козырьки 6 сезон

6 сезон

FAR CRY 6

RePack

Лицензия

MVO

1

1 сезон

1 сезон

Лицензия

  

Подарок с характером (Карен Оганесян) [2014, семейный, приключения, комедия, BDRip 1080p, Оригинал ] от R.G. HD-Films

Подарок с характером через торрент pb.wtf

Размер: 6.56 GB | Добавлен: 4 года 6 мес. назад | Торрент скачан:53 раза
Смотреть онлайн Подарок с характером | Скачать   

19-09-2014 17:41 Подарок с характером Скачать торрент  

Подарок с характером



Год выпуска: 2014
Страна: Россия
Жанр: семейный, приключения, комедия
Продолжительность: 01:28:13
Перевод: Оригинал [Лицензия]
Субтитры: Нет



Режиссер:
  • Карен Оганесян
В ролях:
  • Михаил Галустян, Артем Фадеев, Фёдор Бондарчук, Екатерина Климова, Николай Валуев, Ирина Безрукова, Катерина Шпица, Алексей Макаров, Константин Юшкевич, Инга Стрелкова-Оболдина, Галина Петрова, Наталья Костенева

Описание: Быть пандой весело! Но не Мише, который вынужден работать в костюме панды на детских праздниках. Ему тридцать лет, он живет в крохотной однушке на окраине Москвы, и у него нет серьезной работы. Все было так, пока его не позвали на день рождения к сыну олигарха. Артему девять лет, и у него есть тайный план, помочь осуществить который может только Миша. Мальчик и панда отправляются в путешествие через всю страну, то и дело вляпываясь в невероятные ситуации.



Качество: BDRip 1080p
Формат: MKV
Видео кодек: AVC
Аудио кодек: DTS
Видео: 1920x1036 (1.853), 24 fps, 10746 kbps, 0,225 bpp
Аудио: русский, DTS, 48 kHz, 5.1 ch, 1510 kbps


Код:

General
Unique ID                                : 223734864824503024936246388585457260351 (0xA851C47FEB5941C08A469BABEC84173F)
Complete name                            : E:\Подарок с характером (2014) 1080p.mkv
Format                                   : Matroska
Format version                           : Version 4 / Version 2
File size                                : 7.71 GiB
Duration                                 : 1h 28mn
Overall bit rate                         : 12.5 Mbps
Movie name                               : Подарок с характером
Encoded date                             : UTC 2014-08-09 16:00:53
Writing application                      : mkvmerge v6.9.1 ('Blue Panther') 64bit built on Apr 18 2014 18:23:38
Writing library                          : libebml v1.3.0 + libmatroska v1.4.1
Attachment                               : Yes

Video
ID                                       : 1
Format                                   : AVC
Format/Info                              : Advanced Video Codec
Format profile                           : [email protected]
Format settings, CABAC                   : Yes
Format settings, ReFrames                : 4 frames
Codec ID                                 : V_MPEG4/ISO/AVC
Duration                                 : 1h 28mn
Bit rate                                 : 10.7 Mbps
Width                                    : 1 920 pixels
Height                                   : 1 036 pixels
Display aspect ratio                     : 1.853
Frame rate                               : 24.000 fps
Color space                              : YUV
Chroma subsampling                       : 4:2:0
Bit depth                                : 8 bits
Scan type                                : Progressive
Bits/(Pixel*Frame)                       : 0.225
Stream size                              : 6.62 GiB (86%)
Title                                    : HDCLUB
Writing library                          : x264 core 142 r2431 ac76440
Encoding settings                        : cabac=1 / ref=4 / deblock=1:-3:-3 / analyse=0x3:0x133 / me=umh / subme=10 / psy=1 / psy_rd=1.00:0.00 / mixed_ref=1 / me_range=32 / chroma_me=1 / trellis=2 / 8x8dct=1 / cqm=0 / deadzone=21,11 / fast_pskip=1 / chroma_qp_offset=-2 / threads=12 / lookahead_threads=2 / sliced_threads=0 / nr=0 / decimate=1 / interlaced=0 / bluray_compat=0 / constrained_intra=0 / bframes=8 / b_pyramid=2 / b_adapt=2 / b_bias=0 / direct=3 / weightb=1 / open_gop=0 / weightp=2 / keyint=240 / keyint_min=22 / scenecut=40 / intra_refresh=0 / rc_lookahead=60 / rc=crf / mbtree=0 / crf=16.3 / qcomp=0.60 / qpmin=0 / qpmax=69 / qpstep=4 / vbv_maxrate=62500 / vbv_bufsize=78125 / crf_max=0.0 / nal_hrd=none / filler=0 / ip_ratio=1.20 / pb_ratio=1.20 / aq=1:0.80
Language                                 : Russian
Default                                  : Yes
Forced                                   : No

Audio
ID                                       : 2
Format                                   : DTS
Format/Info                              : Digital Theater Systems
Codec ID                                 : A_DTS
Duration                                 : 1h 28mn
Bit rate mode                            : Constant
Bit rate                                 : 1 510 Kbps
Channel(s)                               : 6 channels
Channel positions                        : Front: L C R, Side: L R, LFE
Sampling rate                            : 48.0 KHz
Bit depth                                : 16 bits
Compression mode                         : Lossy
Stream size                              : 953 MiB (12%)
Title                                    : Оригинал
Language                                 : Russian
Default                                  : Yes
Forced                                   : No

Menu
00:00:00.000                             : :00:00:00.000
00:10:30.750                             : :00:10:30.750
00:22:23.875                             : :00:22:23.875
00:30:28.083                             : :00:30:28.083
00:45:20.542                             : :00:45:20.542
00:52:54.292                             : :00:52:54.292
01:05:06.500                             : :01:05:06.500
01:13:26.083                             : :01:13:26.083

Премьера (мир): 22 мая 2014
Премьера (РФ): 22 мая 2014,
«Каропрокат»

Релиз на Blu-Ray: 12 августа 2014,
«Lizard Cinema Trade»,
...

Релиз на DVD: 12 августа 2014,
«Lizard Cinema Trade»,
...
скриншот   скриншот   скриншот   скриншот  
[/align



Скачать Подарок с характером через торрент https://pic.kartinco.top/new/img/2014-08/09/a3q5k4yvki2gqmb0ni9hd5t8h.png Скачать, смотреть онлайн Подарок с характером бесплантно в хорошем качестве Описание: Быть пандой весело! Но не Мише, который вынужден работать в костюме панды на детских праздниках. Ему тридцать лет, он живет в ... 8.3 10 12
Торрент: Зарегистрирован [2018-03-07 20:27] · скачан: 53 раз
Статус: √ проверено
Размер: 6.56 GB
Как cкачать? Как скачать Подарок с характером через торрент | UTorrent

% Раздел Тема Автор DL S | L
Наши фильмы (HD, WEB-DL 720p, 1080p) [ 2.53 GB ] Подарок с характером | Лицензия | 720p bober100 Скачать
1 | 0
Наши фильмы (DVD фильмы) [ 4.67 GB ] Подарок с характером | | 2014, семейный, приключения, комедия, DVD9 voovaz Скачать
1 | 0
Наши фильмы (Blu-ray, BD-Remux, HDDVD) [ 19.7 GB ] Подарок с характером | | Blu-ray, Оригинал Бумер Скачать
1 | 0
Наши фильмы 2014 [ 1.46 GB ] Подарок с характером | Лицензия | HDRip-AVC, White Smoke Скачать
1 | 0
Наши фильмы 2014 [ 1.37 GB ] Подарок с характером | | HDRip Ворон Скачать
1 | 0
Наши фильмы 2014 [ 1.37 GB ] Подарок с характером | | SATRip Ворон Скачать
1 | 0

28-11-2019 20:33  

Отключить вcю реклaмy на сайте

    Дорогой пользователь! Огромная просьба, поблагодарите релизера, оцените раздачу и оставьте свои комментарий, если Вы скачали Подарок с характером через торрент бесплатно!!
    Комментировать посты могут только пользователи прошедшие не сложную регистрацию
    Показать сообщения:    


    Подарок с характером через торрент
    Скачать бесплатно Подарок с характером
    Подарок с характером скачать торрент
    Подарок с характером смотреть онлайн
    Cкачать фильм Подарок с характером бесплатно
    Подарок с характером скачать торрент в хорошем качестве
    Подарок с характером смотреть онлайн бесплатно в хорошем качестве
    Вы не можете начинать темы
    Вы не можете отвечать на сообщения
    Вы не можете редактировать свои сообщения
    Вы не можете удалять свои сообщения
    Вы не можете голосовать в опросах
    Вы не можете прикреплять файлы к сообщениям
    Вы можете скачивать файлы