MEGA NEWS Получи личный уникальный адрес сайта и защити себя от блокировок. Внимание количество ограничено!!!

iTunes

1+1

iTunes

мы

iTunes

1

iTunes

Чернобыль

iTunes

Ральф против интернета

Лицензия

ПШазам

Лицензия

Игра престолов

Лицензия

30
pack

ВАЖНО

!!Акция!!

Alien_RageХит недели

RePack

Resident Evil 21

ИГРА 18+

pack

RePack

Metro:Exodus

!!Акция!!

Alien_Rage

RePack

fifa19

RePack

Assassins Creed: Odyssey

RePack

NEED FOR SPEED™ PAYBACK

3 сезон

9 сезон

Бесстыжие 9 сезон

Все сериалы

все сериалы на PB.wtf

RePack

FAR CRY 5
Ребята, катастрофически не хватает 1900р. для оплаты серверов за АВГУСТ (всвязи с блокировками трафик упал в 3 раза), 1-2р., выручайте.
  

Крылышко или ножка / L'aile ou la cuisse (Клод Зиди) [1976, комедия, семейный, BDRip, Профессиональный многоголосый [НТВ+] pb.wtf

Крылышко или ножка через торрент pb.wtf

Размер: 1.45 GB | Добавлен: 5 лет назад | Торрент скачан:132 раза
Скачать  

27-09-2014 11:47 Крылышко или ножка Скачать торрент  

Крылышко или ножка / L'aile ou la cuisse


Год выпуска: 1976
Страна: Франция
Жанр:комедия, семейный
Продолжительность:01:45:09
Перевод:Профессиональный многоголосый [НТВ+]
Режиссер:Клод Зиди

  • В ролях:

    Луи де Фюнес (Charles Duchemin), Колюш (Gérard Duchemin), Энн Захариас (Marguerite #2 - la secrétaire intérimaire), Жюльен Гиомар (Jacques Tricatel), Клоди Жансак (Marguerite #1 - la secrétaire de Duchemin), Жорж Шамара (Le doyen des académiciens), Жан Мартен (Le médecin), Фернан Гио (Dubreuil - un collaborateur de Duchemin), Жерар Букарон (Ficelle), Антуан Марен (Un collaborateur de Duchemin), Ив Афонсо (Le faux plombier), Раймон Бюссьер (Henri - le chauffeur de Duchemin)

  • Описание:
    Главный герой мсье Дюшемен - респектабельный составитель ежегодного справочника-путеводителя по ресторанам. Авторитет его книги настолько высок, что все рестораны в Париже и его окрестностях стремятся предстать на ее страницах в выгодном свете.
    Это очень трудно, поскольку Дюшемен все время сам обходит все заведения, переодеваясь, чтобы оставаться не узнанным. Единственное разочарование Дюшемена - его сын, который не желает идти по стопам отца, мечтая стать клоуном в цирке...

  • Мировая премьера:27 октября 1976

    Качество: BDRip
    Формат:AVI
    Видео кодек: XviD
    Аудио кодек:AC3
    Видео: XviD, 720x304 (2.35:1), 1774 kbps, 24 fps, 0,338 bpp
    Аудио: AC3 / 2.0 / 48 kHz / 192 kbps / 16 bit
    Релиз от -
    Автор рипа: yaroslaigor

    Код:

    General
    Complete name                            : D:\Торенты\Krylyshko.ili.nozhka.1976.RUS.BDRip.XviD.AC3.-HQCLUB.avi
    Format                                   : AVI
    Format/Info                              : Audio Video Interleave
    File size                                : 1.45 GiB
    Duration                                 : 1h 45mn
    Overall bit rate                         : 1 976 Kbps
    Movie name                               : Крылышко или ножка / The Wing and the Thigh / L'aile ou la cuisse (1976) BDRip
    Director                                 : yaroslaigor
    Genre                                    : комедия, семейный
    Writing application                      : VirtualDubMod 1.5.10.2 (build 2542/release)

    Comment                                  : 22.09.2014

    Video
    ID                                       : 0
    Format                                   : MPEG-4 Visual
    Format profile                           : Advanced Simple@L5
    Format settings, BVOP                    : 1
    Format settings, QPel                    : No
    Format settings, GMC                     : No warppoints
    Format settings, Matrix                  : Custom
    Codec ID                                 : XVID
    Codec ID/Hint                            : XviD
    Duration                                 : 1h 45mn
    Bit rate                                 : 1 774 Kbps
    Width                                    : 720 pixels
    Height                                   : 304 pixels
    Display aspect ratio                     : 2.35:1
    Frame rate                               : 24.000 fps
    Color space                              : YUV
    Chroma subsampling                       : 4:2:0
    Bit depth                                : 8 bits
    Scan type                                : Progressive
    Compression mode                         : Lossy
    Bits/(Pixel*Frame)                       : 0.338
    Stream size                              : 1.30 GiB (90%)
    Writing library                          : XviD 65

    Audio
    ID                                       : 1
    Format                                   : AC-3
    Format/Info                              : Audio Coding 3
    Mode extension                           : CM (complete main)
    Codec ID                                 : 2000
    Duration                                 : 1h 45mn
    Bit rate mode                            : Constant
    Bit rate                                 : 192 Kbps
    Channel(s)                               : 2 channels
    Channel positions                        : Front: L R
    Sampling rate                            : 48.0 KHz
    Bit depth                                : 16 bits
    Compression mode                         : Lossy
    Stream size                              : 144 MiB (10%)
    Alignment                                : Split accross interleaves
    Interleave, duration                     : 42 ms (1.00 video frame)
    Interleave, preload duration             : 500 ms

    Скриншоты:



    © Оформление by Ravenpb.wtf



  • Скачать Крылышко или ножка через торрент http://pic.kartinco.top/images/6/stazu.jpg Скачать фильм Крылышко или ножка через торрент бесплантно в хорошем качестве Описание:Главный герой мсье Дюшемен - респектабельный составитель ежегодного справочника-путеводителя по ресторанам. Авторитет его книги ... 10 10 3
    Торрент: Зарегистрирован [2014-09-27 11:47] · скачан: 132 раз
    Статус: √ проверено
    Размер: 1.45 GB
    Как cкачать? Как скачать Крылышко или ножка через торрент | qTorrent


    >> Регистрируемся здесь <<






    Отзывы и комментарии о схеме читаем и пишем здесь: ---> Отзывы и комментарии о схеме

    Новые благодарочки в телеграм довольных пользователей:
    скриншот   скриншот   скриншот   скриншот   скриншот
      Дорогой пользователь! Огромная просьба, поблагодарите релизера, оцените раздачу и оставьте свои комментарий, если Вы скачали Крылышко или ножка через торрент бесплатно! Внесите свою лепту в развитие PiratBit!
      Комментировать посты могут только пользователи прошедшие не сложную регистрацию
      Показать сообщения:    

      Крылышко или ножка через торрент
      Скачать бесплатно Крылышко или ножка
      Крылышко или ножка скачать торрент
      Крылышко или ножка смотреть онлайн
      Cкачать фильм Крылышко или ножка бесплатно
      Крылышко или ножка скачать торрент в хорошем качестве
      Крылышко или ножка смотреть онлайн бесплатно в хорошем качестве


      Вы не можете начинать темы
      Вы не можете отвечать на сообщения
      Вы не можете редактировать свои сообщения
      Вы не можете удалять свои сообщения
      Вы не можете голосовать в опросах
      Вы не можете прикреплять файлы к сообщениям
      Вы можете скачивать файлы