новый адрес
Ссылка на приватное зеркало всего за 1$. Внимание количество ограничено!!!

iTunes

1+1

iTunes

мы

iTunes

1

iTunes

Чернобыль

iTunes

Ральф против интернета

Лицензия

ПШазам

Лицензия

Оно 2

Лицензия

30
pack

Вам бонус

ВАЖНО

!!Акция!!

Alien_RageХит недели

RePack

Resident Evil 21

ИГРА 18+

pack

RePack

jed

!!Акция!!

Alien_Rage

RePack

fifa19

RePack

Assassins Creed: Odyssey

RePack

NEED FOR SPEED™ PAYBACK

3 сезон

9 сезон

Бесстыжие 9 сезон

Все сериалы

все сериалы на PB.wtf

RePack

FAR CRY 5
Ребята, катастрофически не хватает 1900р. для оплаты серверов за Октябрь (всвязи с блокировками трафик упал в 3 раза), 1-2р., выручайте.
  

Выживут только любовники / Only Lovers Left Alive (Джим Джармуш / Jim Jarmusch) [2013, Великобритания, Германия, фантастика, триллер, драма, SATRip,Профессиональный [Дубляж ] pb.wtf

Выживут только любовники через торрент pb.wtf

Размер: 1.37 GB | Добавлен: 5 лет 2 мес. назад | Торрент скачан:258 раз
Скачать  

28-05-2014 06:57 Выживут только любовники Скачать торрент  


Выживут только любовники / Only Lovers Left Alive
«Бессмертие надоедает...»

Год выпуска: 2013
Страна:Великобритания, Германия
Жанр:фантастика, триллер, драма
Продолжительность:01:57:53
Перевод:Профессиональный [Дубляж ]
Субтитры: Нет
Режиссер: Джим Джармуш / Jim Jarmusch

  • В ролях:

    Тильда Суинтон (Eve), Том Хиддлстон (Adam), Антон Ельчин (Ian), Миа Васиковска (Ava), Джон Хёрт (Marlowe), Джеффри Райт (Dr. Watson), Слиман Дази (Bilal), Картер Логан (Scott), Орели Тепо (Flight Attendant), Али Эмин (Taxi Driver, Detroit), Dave W. (White Hills), Ego Sensation (White Hills)

  • Описание:
    История древних вампиров Адама и Евы, которые видели ещё татаро-монгольское иго и инквизиции. Адам - рокер из Детройта, играющий андеграунд-музыку. Он уже очень старый, он хочет тишины, покоя, и тихо ненавидит «зомби» (так вампиры зовут людей). Ева же - напротив, весьма жизнерадостная вампирелла постарше, общающаяся с поэтом времён Шекспира, Кристофером Марло, и живущая в Танжере. Она приезжает вытаскивать своего любовника из пучины депрессии. Но идиллию нарушает внезапно заявляющаяся младшая сестра Евы - Ава. Исход ситуации предсказать не в силах никто - выживут только любовники?

  • Мировая премьера:25 мая 2013


      Качество: SATRip
      Формат: AVI
      Видео кодек: XviD
      Аудио кодек:AC3
      Видео: XviD, 704x384 (16:9), 1202 kbps, 25 fps, 0,178 bpp
      Аудио: AC3 / 5.1 / 48 kHz / 448 kbps / 16 bit


    Код:

    General
    Complete name                            : D:\Торенты\Vyzhyvut.t0lko.lyubovn1ki.2013.D.SATRip.1400MB.avi
    Format                                   : AVI
    Format/Info                              : Audio Video Interleave
    File size                                : 1.37 GiB
    Duration                                 : 1h 57mn
    Overall bit rate                         : 1 661 Kbps
    Writing application                      : VirtualDubMod 1.5.10.3 | www.virtualdub-fr.org || (build 2550/release)
    Writing library                          : VirtualDubMod build 2550/release

    Video
    ID                                       : 0
    Format                                   : MPEG-4 Visual
    Format profile                           : Advanced Simple@L5
    Format settings, BVOP                    : 2
    Format settings, QPel                    : No
    Format settings, GMC                     : No warppoints
    Format settings, Matrix                  : Custom
    Codec ID                                 : XVID
    Codec ID/Hint                            : XviD
    Duration                                 : 1h 57mn
    Bit rate                                 : 1 203 Kbps
    Width                                    : 704 pixels
    Height                                   : 384 pixels
    Display aspect ratio                     : 16:9
    Frame rate                               : 25.000 fps
    Color space                              : YUV
    Chroma subsampling                       : 4:2:0
    Bit depth                                : 8 bits
    Scan type                                : Progressive
    Compression mode                         : Lossy
    Bits/(Pixel*Frame)                       : 0.178
    Stream size                              : 1 014 MiB (72%)
    Writing library                          : XviD 1.2.1 (UTC 2008-12-04)

    Audio
    ID                                       : 1
    Format                                   : AC-3
    Format/Info                              : Audio Coding 3
    Mode extension                           : CM (complete main)
    Codec ID                                 : 2000
    Duration                                 : 1h 57mn
    Bit rate mode                            : Constant
    Bit rate                                 : 448 Kbps
    Channel(s)                               : 6 channels
    Channel positions                        : Front: L C R, Side: L R, LFE
    Sampling rate                            : 48.0 KHz
    Bit depth                                : 16 bits
    Compression mode                         : Lossy
    Stream size                              : 378 MiB (27%)
    Alignment                                : Split accross interleaves
    Interleave, duration                     : 40 ms (1.00 video frame)
    Interleave, preload duration             : 500 ms

    Скриншоты:

    Каталог Новинок (Фильмы-трейлеры, Игры, Сериалы, Мультфильмы)

    © Оформление by Raven
    pb.wtf



  • Скачать Выживут только любовники через торрент http://pic.kartinco.top/images/6/stazu.jpg Скачать фильм Выживут только любовники через торрент бесплантно в хорошем качестве Описание:История древних вампиров Адама и Евы, которые видели ещё татаро-монгольское иго и инквизиции. Адам - рокер из Детройта, играющий ... 9.5 10 20
    Торрент: Зарегистрирован [2014-09-27 11:50] · скачан: 258 раз
    Статус: √ проверено
    Размер: 1.37 GB
    Как cкачать? Как скачать Выживут только любовники через торрент | qTorrent

    % Раздел Тема Автор DL S | L
    Фильмы [HD 720p, 1080p] (Хороший звук DUB, MVO) [ 7.93 GB ] Выживут только любовники / Only Lovers Left Alive [2013 BDRip 1080p от еnvy / NNNB] DUB еnvy Скачать
    12 | 1
    Фильмы [HD 720p, 1080p] (Хороший звук DUB, MVO) [ 10.93 GB ] Выживут только любовники / Only Lovers Left Alive [2013 Германия Греция BDRip 720p] + 2xAVO [Сербин Матвеев] + Original + Subs от R.G. PiratFilms Messa-fan Скачать
    1 | 0
    Официальные cаундтреки к зарубежным фильмам [ 273 MB ] Выживут только любовники / Only Lovers Left Alive - 2014 FLAC lossless Messa-fan Скачать
    1 | 0
    Арт-хаус и авторское кино [ 1.46 GB ] Выживут только любовники / Only Lovers Left Alive [2013 HDRip ] [НТВ кэп Скачать
    1 | 0
    Арт-хаус и авторское кино [ 2.05 GB ] Выживут только любовники / Only Lovers Left Alive [2013 HDRip ] [] Ворон Скачать
    1 | 0
    Фильмы с авторской озвучкой [ 2.04 GB ] Выживут только любовники / Only Lovers Left Alive [2013 HDRip Авторский одноголосый "А.Матвеев"] coc900 Скачать
    1 | 0
    Арт-хаус и авторское кино [ 1.46 GB ] Выживут только любовники / Only Lovers Left Alive [2013 HDRip ] [] Ворон Скачать
    1 | 0
    Отключить всю рекламу на сайте

    28-05-2014 07:49 Выживут только любовники Скачать торрент  

    Сравнение скриншотов WEBRip vs. SATRip
    http://screenshotcomparison.com/comparison/76470pb.wtf



      Дорогой пользователь! Огромная просьба, поблагодарите релизера, оцените раздачу и оставьте свои комментарий, если Вы скачали Выживут только любовники через торрент бесплатно! Внесите свою лепту в развитие PiratBit!
      Комментировать посты могут только пользователи прошедшие не сложную регистрацию
      Показать сообщения:    

      Выживут только любовники через торрент
      Скачать бесплатно Выживут только любовники
      Выживут только любовники скачать торрент
      Выживут только любовники смотреть онлайн
      Cкачать фильм Выживут только любовники бесплатно
      Выживут только любовники скачать торрент в хорошем качестве
      Выживут только любовники смотреть онлайн бесплатно в хорошем качестве


      Вы не можете начинать темы
      Вы не можете отвечать на сообщения
      Вы не можете редактировать свои сообщения
      Вы не можете удалять свои сообщения
      Вы не можете голосовать в опросах
      Вы не можете прикреплять файлы к сообщениям
      Вы можете скачивать файлы