1 сезон

1 сезон

iTunes

1

КиноПоиск HD

Кинопоиск HD

iTunes

13

1 сезон

RePack

30

Ultimate

ВАЖНО

ИГРА 18+

pack

RePack

MK11
pack

Легкие деньги

RePack

jed

RePack

fifa19

RePack

RDR2

RePack

NEED FOR SPEED™ PAYBACK

4 сезон

9 сезон

Бесстыжие 9 сезон

Все сериалы

все сериалы на PB.wtf

RePack

FAR CRY 5
  
Magnet ссылка

Спеши любить / A Walk to Remember (Адам Шенкман) [2002, драма, мелодрама, BDRip] DUB Лицензия pb.wtf

Спеши любить через торрент pb.wtf

Размер: 2.18 GB | Добавлен: 6 лет 6 мес. назад | Торрент скачан:313 раз
Скачать  

27-09-2014 11:51 Спеши любить Скачать торрент  

Спеши любить / A Walk to Remember
«Наша любовь, как ветер, ее не видишь, но чувствуешь...»

Год выпуска: 2002
Страна: США
Жанр:драма, мелодрама
Продолжительность:01:41:59
Перевод:Дубляж - [Лицензия]
Субтитры: Русские, Английские (внешние srt*)
Режиссер:Адам Шенкман

  • В ролях:

    Шэйн Уэст (Landon Carter), Мэнди Мур (Jamie Sullivan), Питер Койот (Reverend Sullivan), Дэрил Ханна (Cynthia Carter), Лорен Джерман (Belinda), Клейн Кроуфорд (Dean), Аль Томпсон (Eric), Пас де ла Уэрта (Tracie), Джонатан Паркс Джордан (Walker), Мэтт Лутс (Clay Gephardt), Дэвид Эндрюс (Mr. Kelly), Дэвид Ли Смит (Dr. Carter)

  • Описание:
    Лэндон Картер - кумир своей школы: он независим, красив и жесток к изгоям. И конечно, он не замечает невзрачную Джэйми, думающую только об учебе. После очередной дурацкой выходки Картера заставляют заниматься с отстающими и играть в школьном спектакле.
    Тут уж ему не обойтись без помощи скромной отличницы. Джэйми соглашается помочь Лэндону, но только если он пообещает, что не будет влюбляться в нее. Самонадеянный парень охотно дает клятву, но вскоре он убедится, что сдержать ее будет очень непросто...

  • Мировая премьера:23 января 2002

    Качество: BDRip
    Формат:AVI
    Видео кодек: XviD
    Аудио кодек:AC3
    Видео: XviD, 720x304 (2.35:1), 2146 kbps, 23,976 fps, 0,409 bpp
    Аудио №1: AC3 / 5.1 / 48 kHz / 448 kbps / DUB
    Аудио №2: AC3 / 5.1 / 48 kHz / 448 kbps / ENG
    Релиз от -
    Автор рипа: kingsize87

    Код:

    General
    Complete name                            : D:\Торенты\Speshi.lyubit.2002.DUAL.BDRip.XviD.AC3.-HQCLUB\Speshi.lyubit.2002.DUAL.BDRip.XviD.AC3.-HQCLUB.avi
    Format                                   : AVI
    Format/Info                              : Audio Video Interleave
    Format profile                           : OpenDML
    File size                                : 2.18 GiB
    Duration                                 : 1h 41mn
    Overall bit rate                         : 3 060 Kbps
    Movie name                               : Спеши любить / Памятная прогулка / A Walk to Remember (2002) BDRip
    Director                                 : kingsize87
    Writing application                      : VirtualDubMod 1.5.10.2 (build 2540/release)
    Copyright                                : HQCLUB
    Comment                                  : 15.09.2014

    Video
    ID                                       : 0
    Format                                   : MPEG-4 Visual
    Format profile                           : Advanced Simple@L5
    Format settings, BVOP                    : 1
    Format settings, QPel                    : No
    Format settings, GMC                     : No warppoints
    Format settings, Matrix                  : Custom
    Codec ID                                 : XVID
    Codec ID/Hint                            : XviD
    Duration                                 : 1h 41mn
    Bit rate                                 : 2 146 Kbps
    Width                                    : 720 pixels
    Height                                   : 304 pixels
    Display aspect ratio                     : 2.35:1
    Frame rate                               : 23.976 fps
    Color space                              : YUV
    Chroma subsampling                       : 4:2:0
    Bit depth                                : 8 bits
    Scan type                                : Progressive
    Compression mode                         : Lossy
    Bits/(Pixel*Frame)                       : 0.409
    Stream size                              : 1.53 GiB (70%)
    Writing library                          : XviD 65

    Audio #1
    ID                                       : 1
    Format                                   : AC-3
    Format/Info                              : Audio Coding 3
    Mode extension                           : CM (complete main)
    Codec ID                                 : 2000
    Duration                                 : 1h 41mn
    Bit rate mode                            : Constant
    Bit rate                                 : 448 Kbps
    Channel(s)                               : 6 channels
    Channel positions                        : Front: L C R, Side: L R, LFE
    Sampling rate                            : 48.0 KHz
    Bit depth                                : 16 bits
    Compression mode                         : Lossy
    Stream size                              : 327 MiB (15%)
    Alignment                                : Split accross interleaves
    Interleave, duration                     : 42 ms (1.00 video frame)
    Interleave, preload duration             : 500 ms

    Audio #2
    ID                                       : 2
    Format                                   : AC-3
    Format/Info                              : Audio Coding 3
    Mode extension                           : CM (complete main)
    Codec ID                                 : 2000
    Duration                                 : 1h 41mn
    Bit rate mode                            : Constant
    Bit rate                                 : 448 Kbps
    Channel(s)                               : 6 channels
    Channel positions                        : Front: L C R, Side: L R, LFE
    Sampling rate                            : 48.0 KHz
    Bit depth                                : 16 bits
    Compression mode                         : Lossy
    Stream size                              : 327 MiB (15%)
    Alignment                                : Split accross interleaves
    Interleave, duration                     : 42 ms (1.00 video frame)
    Interleave, preload duration             : 500 ms

    Скриншоты:



    © Оформление by Ravenpb.wtf



  • Скачать Спеши любить через торрент https://pic.kartinco.top/images/6/stazu.jpg Скачать фильм Спеши любить через торрент бесплантно в хорошем качестве Описание:Лэндон Картер - кумир своей школы: он независим, красив и жесток к изгоям. И конечно, он не замечает невзрачную Джэйми, думающую ... 10 10 8
    Info! Золотая раздача, скачанное не засчитывается.
    Торрент: Зарегистрирован [2014-09-27 11:51] · скачан: 313 раз
    Статус: √ проверено
    Размер: 2.18 GB
    Как cкачать? Как скачать Спеши любить через торрент | UTorrent

    28-11-2019 20:33  

    Отключить всю рекламу на сайте

      Дорогой пользователь! Огромная просьба, поблагодарите релизера, оцените раздачу и оставьте свои комментарий, если Вы скачали Спеши любить через торрент бесплатно! Внесите свою лепту в развитие PiratBit!
      Комментировать посты могут только пользователи прошедшие не сложную регистрацию
      Показать сообщения:    

      Спеши любить через торрент
      Скачать бесплатно Спеши любить
      Спеши любить скачать торрент
      Спеши любить смотреть онлайн
      Cкачать фильм Спеши любить бесплатно
      Спеши любить скачать торрент в хорошем качестве
      Спеши любить смотреть онлайн бесплатно в хорошем качестве


      Вы не можете начинать темы
      Вы не можете отвечать на сообщения
      Вы не можете редактировать свои сообщения
      Вы не можете удалять свои сообщения
      Вы не можете голосовать в опросах
      Вы не можете прикреплять файлы к сообщениям
      Вы можете скачивать файлы