Ссылка на приватное зеркало нашего сайта всего за 1$. Внимание количество ограничено!!!

2 сезон

iTunes

1 сезон

1

2 сезон

2 сезон

iTunes

1 сезон

RePack

30

Ultimate

ВАЖНО

ИГРА 18+

pack

RePack

MK11
pack

Забери бонус

RePack

jed

!!Акция!!

Alien_Rage

RePack

fifa19

RePack

Assassins Creed: Odyssey

RePack

NEED FOR SPEED™ PAYBACK

4 сезон

9 сезон

Бесстыжие 9 сезон

Все сериалы

все сериалы на PB.wtf

RePack

FAR CRY 5
  

Город грехов 2: Женщина, ради которой стоит убивать / Sin City: A Dame to Kill For (Фрэнк Миллер, Роберт Родригес) [2014 г., Боевик, триллер, криминал, Blu-ray, Дубляж, [Лицензия] pb.wtf

Город грехов 2: Женщина, ради которой стоит убивать через торрент pb.wtf

Размер: 15.34 GB | Добавлен: 6 лет 1 мес. назад | Торрент скачан:221 раз
Скачать  

27-09-2014 13:36 Город грехов 2: Женщина, ради которой стоит убивать Скачать торрент  

Город грехов 2: Женщина ради которой стоит убивать Лицензия / Sin City: A Dame to Kill For
Год выпуска: 2014
Страна: США
Жанр: Боевик, триллер, криминал
Продолжительность: 01:42:46
Перевод: Дубляж, Лицензия
Субтитры: нет

Режиссер: Фрэнк Миллер, Роберт Родригес

В ролях: Ева Грин, Микки Рурк, Джош Бролин, Джессика Альба, Джозеф Гордон-Левитт, Розарио Доусон, Пауэрс Бут, Деннис Хейсбёрт, Джейми Чунг, Брюс Уиллис

Описание: В темных переулках Города Грехов Дуайт планирует жестоко отомстить женщине по имени Ава Лорд, которая его предала, в то время как Нэнси пытается смириться со смертью детектива Хартигана.

Качество: Blu-ray
Формат: BDMV
Видео кодек: H.264
Аудио кодек: AC3-DTS
Видео: MPEG-4 AVC, (1920x1080),18300 Кбит/с, 23.976 кадра/сек
Аудио#1: AC3, 6 ch,640 kbps (Rus) 48.0 KHz Дубляж Лицензия
Аудио#2: DTS 6 ch,1509 kbps (Rus) 48.0 KHz Дубляж Лицензия
скриншот   скриншот   скриншот  

Тип потока: Видео
Длительность: 01:42:46
Кодек: AVC
Кодек/описание: Advanced Video Codec
Кодек/профиль: High@L4.1
Кодек/ID: 27
Кодек/CABAC: Yes
Кодек/ReFrames: 4 frames
Размеры изображения: 1920 x 1080 (16:9)
Частота кадров: 24.000 fps
Размер потока: 13.1 GiB (86%)
Битрейт: 18.3 Mbps
Битрейт/макс: 34.0 Mbps
Битрейт/тип: VBR
Стандарт: NTSC
Цветовое пространство: YUV
Тип развёртки: Progressive
Колориметрия: 4:2:0
Глубина: 8 bits
:
Тип потока: Звук #1
Длительность: 01:42:45.984
Кодек: AC-3
Кодек/описание: Audio Coding 3
Кодек/ID: 129
Частота дискретизации: 48.0 KHz
Каналов: 6 channels
Битрейт: 640 Kbps
Битрейт/тип: Constant
Размер потока: 470 MiB (3%)
Глубина: 16 bits
Метод сжатия: Lossy
:
Тип потока: Звук #2
Длительность: 01:42:45.963
Кодек: DTS
Кодек/описание: Digital Theater Systems
Кодек/ID: 130
Частота дискретизации: 48.0 KHz
Каналов: 6 channels
Битрейт: 1 510 Kbps
Битрейт/тип: Constant
Размер потока: 1.08 GiB (7%)
Глубина: 24 bits
Метод сжатия: Lossy

pb.wtf



Скачать Город грехов 2: Женщина, ради которой стоит убивать через торрент http://pic.kartinco.top/images/7/5nyak.jpg Скачать фильм Город грехов 2: Женщина, ради которой стоит убивать через торрент бесплантно в хорошем качестве Описание: В темных переулках Города Грехов Дуайт планирует жестоко отомстить женщине по имени Ава Лорд, которая его предала, в то время как ... 10 10 8
Info! Золотая раздача, скачанное не засчитывается.
Торрент: Зарегистрирован [2014-09-27 13:36] · скачан: 221 раз
Статус: √ проверено
Размер: 15.34 GB
Как cкачать? Как скачать Город грехов 2: Женщина, ради которой стоит убивать через торрент | qTorrent

% Раздел Тема Автор DL S | L
3D Фильмы [ 7.52 GB ] Город грехов 2: Женщина ради которой стоит убивать 3Д / Sin City: A Dame to Kill For 3D [2014 BDRip 1080p] [Half OverUnder / Вертикальная анаморфная стереопара] DUB [] bober100 Скачать
1 | 0
3D Фильмы [ 6.63 GB ] Город грехов 2: Женщина ради которой стоит убивать / Sin City: A Dame to Kill For [2014 BDRip 1080p ] Анаглиф slaventi-69 Скачать
1 | 0
3D Фильмы [ 11.36 GB ] Город грехов 2: Женщина ради которой стоит убивать / Sin City: A Dame to Kill For [2014 BDrip 1080p] OverUnder / Вертикальная стереопара serega768 Скачать
1 | 0
Фильмы 2014 [DVDrip, WEB-DLRip, HDrip] [ 1.46 GB ] Город грехов 2: Женщина ради которой стоит убивать / Sin City: A Dame to Kill For [2014 HDRip [лицезия] Ворон Скачать
1 | 0
Фильмы [HD 720p, 1080p] (Хороший звук DUB, MVO) [ 4.32 GB ] Город грехов 2: Женщина ради которой стоит убивать / Sin City: A Dame to Kill For [2014 BDRip 720p] DUB Ворон Скачать
1 | 0
Фильмы 2014 [DVDrip, WEB-DLRip, HDrip] [ 1.81 GB ] Город грехов 2: Женщина ради которой стоит убивать / Sin City: A Dame to Kill For [2014 Россия HDRip-AVC] - [] От R.G. PiratFilms White Smoke Скачать
1 | 0
Фильмы [HD 720p, 1080p] (Хороший звук DUB, MVO) [ 7.15 GB ] Город грехов 2: Женщина ради которой стоит убивать / Sin City: A Dame to Kill For [2014 BDRip 1080p Dub ] Seedtank Скачать
3 | 0

28-11-2019 20:33  

Отключить всю рекламу на сайте

30-09-2014 06:05 Город грехов 2: Женщина, ради которой стоит убивать Скачать торрент  

спасибо за раздачу. Фильмец зачетный!pb.wtf



    Дорогой пользователь! Огромная просьба, поблагодарите релизера, оцените раздачу и оставьте свои комментарий, если Вы скачали Город грехов 2: Женщина, ради которой стоит убивать через торрент бесплатно! Внесите свою лепту в развитие PiratBit!
    Комментировать посты могут только пользователи прошедшие не сложную регистрацию
    Показать сообщения:    

    Город грехов 2: Женщина, ради которой стоит убивать через торрент
    Скачать бесплатно Город грехов 2: Женщина, ради которой стоит убивать
    Город грехов 2: Женщина, ради которой стоит убивать скачать торрент
    Город грехов 2: Женщина, ради которой стоит убивать смотреть онлайн
    Cкачать фильм Город грехов 2: Женщина, ради которой стоит убивать бесплатно
    Город грехов 2: Женщина, ради которой стоит убивать скачать торрент в хорошем качестве
    Город грехов 2: Женщина, ради которой стоит убивать смотреть онлайн бесплатно в хорошем качестве


    Вы не можете начинать темы
    Вы не можете отвечать на сообщения
    Вы не можете редактировать свои сообщения
    Вы не можете удалять свои сообщения
    Вы не можете голосовать в опросах
    Вы не можете прикреплять файлы к сообщениям
    Вы можете скачивать файлы