Ссылка на приватное зеркало нашего сайта всего за 1$. Внимание количество ограничено!!!

2 сезон

iTunes

1 сезон

1

iTunes

iTunes

iTunes

1 сезон

RePack

30

ИГРА 18+

pack

ВАЖНО

!!Акция!!

Alien_RageХит недели

RePack

MK11
pack

Забери бонус

RePack

jed

!!Акция!!

Alien_Rage

RePack

fifa19

RePack

Assassins Creed: Odyssey

RePack

NEED FOR SPEED™ PAYBACK

4 сезон

9 сезон

Бесстыжие 9 сезон

Все сериалы

все сериалы на PB.wtf

RePack

FAR CRY 5
  

Профессионал / Le professionnel (Жорж Лотнер) [1981 г., боевик, триллер, драма, криминал, DVD 9 (Custom) 4 MVO + DUB + 2 AVO + SUB (Rus) + Original] pb.wtf

Профессионал через торрент pb.wtf

Размер: 7.22 GB | Добавлен: 6 лет назад | Торрент скачан:14 раз
Скачать  

27-09-2014 13:55 Профессионал Скачать торрент  

Профессионал / Le professionnel

Год выпуска: 1981
Страна: Франция
Жанр: боевик, триллер, драма, криминал
Продолжительность: 01:43:34
Перевод: Профессиональный (многоголосый, закадровый) | Профессиональный (полное дублирование) | Аторский (одноголосый, закадровый)

  • Режиссер: Жорж Лотнер
  • Продюсер: Ален Бельмондо, Жорж Дансижер, Александр Мнушкин
  • Сценарий: Жак Одиар, Мишель Одиар, Жорж Лотнер


В ролях: Жан-Поль Бельмондо, Жан Дезайи, Робер Оссейн, Мишель Бон, Сирил Клер, Жан-Луи Ришар, Сидики Бакаба, Пьер Сентон, Мари-Кристин Декуар, Бернар-Пьер Доннадьё.

Описание: Убить президента африканской республики. Такое задание получил секретный агент Жослен Бомон. Внезапно политика изменилась, и французское правительство сдает героя африканским властям. Сбежав с каторги, волк-одиночка возвращается на родину с одной целью: довести задание до конца. А чернокожий лидер как раз приезжает во Францию.

  • Качество: DVD9 (Custom)
  • Формат: DVD Video
  • Видео кодек: MPEG2
  • Аудио кодек:
  • Видео: MPEG 2, 720x576 (16:9), 25.000 fps, 8 150 Kbps (0.786 bit/pixel)
  • Аудио #1: AC-3, 48.0 KHz, 2 ch, 192 Kbps, CBR | MVO к.ст им. Горького
  • Аудио #2: AC-3, 48.0 KHz, 2 ch, 256 Kbps, CBR | DUB Мосфильм
  • Аудио #3: AC-3, 48.0 KHz, 2 ch, 192 Kbps, CBR | MVO НТВ
  • Аудио #4: AC-3, 48.0 KHz, 2 ch, 192 Kbps, CBR | MVO Неоклассика
  • Аудио #5: AC-3, 48.0 KHz, 2 ch, 192 Kbps, CBR | MVO Тивионика
  • Аудио #6: AC-3, 48.0 KHz, 2 ch, 192 Kbps, CBR | AVO Л.Володарский
  • Аудио #7: AC-3, 48.0 KHz, 2 ch, 256 Kbps, CBR | AVO С.Кузнецов
  • Аудио #8: AC-3, 48.0 KHz, 2 ch, 224 Kbps, CBR | Original
  • Субтитры: русские


Скриншоты меню

скриншот  скриншот  скриншот  


Скриншоты

скриншот  скриншот  скриншот  скриншот  скриншот  


Код:

Title: Профессионал Ж.-П.Бельмондо_1981г
Size: 7.22 Gb ( 7 573 882,00 KBytes ) - DVD-9
Enabled regions: 1, 2, 3, 4, 5, 6, 7, 8

VTS_01 :
  Play Length: 01:43:34
  Video: PAL 16:9 (720x576) VBR, Auto Pan&Scan, Auto Letterboxed
  Audio:
      Russian (Dolby AC3, 2 ch)
      Russian (Dolby AC3, 2 ch)
      Russian (Dolby AC3, 2 ch)
      Russian (Dolby AC3, 2 ch)
      Russian (Dolby AC3, 2 ch)
      Russian (Dolby AC3, 2 ch)
      Russian (Dolby AC3, 2 ch)
      Francais (Dolby AC3, 2 ch)
  Subtitles:
      Russian
      English

* Menus Information *

VIDEO_TS Menu
Video:
      PAL 4:3 (720x576) VBR
English Language Unit :
      Title Menu

VTS_01 Menu
Video:
      PAL 16:9 (720x576) VBR
      Auto Letterboxed
Audio:
      Not specified (Dolby AC3, 2 ch)
English Language Unit :
      Root Menu


Код:

General
Complete name                            : F:\PC Share\Профессионал Ж.-П.Бельмондо_1981г\VIDEO_TS\VTS_01_1.VOB
Format                                   : MPEG-PS
File size                                : 1 000 MiB
Duration                                 : 14mn 5s
Overall bit rate mode                    : Variable
Overall bit rate                         : 9 919 Kbps

Video
ID                                       : 224 (0xE0)
Format                                   : MPEG Video
Format version                           : Version 2
Format profile                           : Main@Main
Format settings, BVOP                    : Yes
Format settings, Matrix                  : Custom
Format settings, GOP                     : M=3, N=15
Duration                                 : 14mn 5s
Bit rate mode                            : Variable
Bit rate                                 : 8 025 Kbps
Maximum bit rate                         : 8 150 Kbps
Width                                    : 720 pixels
Height                                   : 576 pixels
Display aspect ratio                     : 16:9
Frame rate                               : 25.000 fps
Standard                                 : PAL
Color space                              : YUV
Chroma subsampling                       : 4:2:0
Bit depth                                : 8 bits
Scan type                                : Interlaced
Scan order                               : Top Field First
Compression mode                         : Lossy
Bits/(Pixel*Frame)                       : 0.774
Time code of first frame                 : 00:00:00:00
Time code source                         : Group of pictures header
Stream size                              : 809 MiB (81%)

Audio #1
ID                                       : 189 (0xBD)-128 (0x80)
Format                                   : AC-3
Format/Info                              : Audio Coding 3
Mode extension                           : CM (complete main)
Format settings, Endianness              : Big
Muxing mode                              : DVD-Video
Duration                                 : 14mn 5s
Bit rate mode                            : Constant
Bit rate                                 : 192 Kbps
Channel(s)                               : 2 channels
Channel positions                        : Front: L R
Sampling rate                            : 48.0 KHz
Bit depth                                : 16 bits
Compression mode                         : Lossy
Stream size                              : 19.4 MiB (2%)

Audio #2
ID                                       : 189 (0xBD)-129 (0x81)
Format                                   : AC-3
Format/Info                              : Audio Coding 3
Mode extension                           : CM (complete main)
Format settings, Endianness              : Big
Muxing mode                              : DVD-Video
Duration                                 : 14mn 5s
Bit rate mode                            : Constant
Bit rate                                 : 256 Kbps
Channel(s)                               : 2 channels
Channel positions                        : Front: L R
Sampling rate                            : 48.0 KHz
Bit depth                                : 16 bits
Compression mode                         : Lossy
Stream size                              : 25.8 MiB (3%)

Audio #3
ID                                       : 189 (0xBD)-130 (0x82)
Format                                   : AC-3
Format/Info                              : Audio Coding 3
Mode extension                           : CM (complete main)
Format settings, Endianness              : Big
Muxing mode                              : DVD-Video
Duration                                 : 14mn 5s
Bit rate mode                            : Constant
Bit rate                                 : 192 Kbps
Channel(s)                               : 2 channels
Channel positions                        : Front: L R
Sampling rate                            : 48.0 KHz
Bit depth                                : 16 bits
Compression mode                         : Lossy
Stream size                              : 19.4 MiB (2%)

Audio #4
ID                                       : 189 (0xBD)-131 (0x83)
Format                                   : AC-3
Format/Info                              : Audio Coding 3
Mode extension                           : CM (complete main)
Format settings, Endianness              : Big
Muxing mode                              : DVD-Video
Duration                                 : 14mn 5s
Bit rate mode                            : Constant
Bit rate                                 : 192 Kbps
Channel(s)                               : 2 channels
Channel positions                        : Front: L R
Sampling rate                            : 48.0 KHz
Bit depth                                : 16 bits
Compression mode                         : Lossy
Stream size                              : 19.4 MiB (2%)

Audio #5
ID                                       : 189 (0xBD)-132 (0x84)
Format                                   : AC-3
Format/Info                              : Audio Coding 3
Mode extension                           : CM (complete main)
Format settings, Endianness              : Big
Muxing mode                              : DVD-Video
Duration                                 : 14mn 5s
Bit rate mode                            : Constant
Bit rate                                 : 192 Kbps
Channel(s)                               : 2 channels
Channel positions                        : Front: L R
Sampling rate                            : 48.0 KHz
Bit depth                                : 16 bits
Compression mode                         : Lossy
Stream size                              : 19.4 MiB (2%)

Audio #6
ID                                       : 189 (0xBD)-133 (0x85)
Format                                   : AC-3
Format/Info                              : Audio Coding 3
Mode extension                           : CM (complete main)
Format settings, Endianness              : Big
Muxing mode                              : DVD-Video
Duration                                 : 14mn 5s
Bit rate mode                            : Constant
Bit rate                                 : 192 Kbps
Channel(s)                               : 2 channels
Channel positions                        : Front: L R
Sampling rate                            : 48.0 KHz
Bit depth                                : 16 bits
Compression mode                         : Lossy
Stream size                              : 19.4 MiB (2%)

Audio #7
ID                                       : 189 (0xBD)-134 (0x86)
Format                                   : AC-3
Format/Info                              : Audio Coding 3
Mode extension                           : CM (complete main)
Format settings, Endianness              : Big
Muxing mode                              : DVD-Video
Duration                                 : 14mn 5s
Bit rate mode                            : Constant
Bit rate                                 : 256 Kbps
Channel(s)                               : 2 channels
Channel positions                        : Front: L R
Sampling rate                            : 48.0 KHz
Bit depth                                : 16 bits
Compression mode                         : Lossy
Stream size                              : 25.8 MiB (3%)

Audio #8
ID                                       : 189 (0xBD)-135 (0x87)
Format                                   : AC-3
Format/Info                              : Audio Coding 3
Mode extension                           : CM (complete main)
Format settings, Endianness              : Big
Muxing mode                              : DVD-Video
Duration                                 : 14mn 5s
Bit rate mode                            : Constant
Bit rate                                 : 224 Kbps
Channel(s)                               : 2 channels
Channel positions                        : Front: L R
Sampling rate                            : 48.0 KHz
Bit depth                                : 16 bits
Compression mode                         : Lossy
Stream size                              : 22.6 MiB (2%)

Menu

pb.wtf



Скачать Профессионал через торрент http://i67.fastpic.ru/big/2014/0927/c8/0ab87ddd62b8bfa8a7d84e6eb94bc1c8.png Скачать фильм Профессионал через торрент бесплантно в хорошем качестве Описание: Убить президента африканской республики. Такое задание получил секретный агент Жослен Бомон. Внезапно политика изменилась, и ... 10 10 4
Info! Золотая раздача, скачанное не засчитывается.
Торрент: Зарегистрирован [2014-09-27 13:55] · скачан: 14 раз
Статус: √ проверено
Размер: 7.22 GB
Как cкачать? Как скачать Профессионал через торрент | qTorrent

28-11-2019 20:33  

Отключить всю рекламу на сайте

    Дорогой пользователь! Огромная просьба, поблагодарите релизера, оцените раздачу и оставьте свои комментарий, если Вы скачали Профессионал через торрент бесплатно! Внесите свою лепту в развитие PiratBit!
    Комментировать посты могут только пользователи прошедшие не сложную регистрацию
    Показать сообщения:    

    Профессионал через торрент
    Скачать бесплатно Профессионал
    Профессионал скачать торрент
    Профессионал смотреть онлайн
    Cкачать фильм Профессионал бесплатно
    Профессионал скачать торрент в хорошем качестве
    Профессионал смотреть онлайн бесплатно в хорошем качестве


    Вы не можете начинать темы
    Вы не можете отвечать на сообщения
    Вы не можете редактировать свои сообщения
    Вы не можете удалять свои сообщения
    Вы не можете голосовать в опросах
    Вы не можете прикреплять файлы к сообщениям
    Вы можете скачивать файлы