новый адрес пиратбит piratbit
Мега распродажа FORZA HORIZON 4 ULTIMATE+ВСЕ DLC+ОНЛАЙН всего за 499р. 349 руб. (супер цена). Внимание количество ограничено!!!

iTunes

1+1

iTunes

мы

iTunes

1

iTunes

Чернобыль

iTunes

Ральф против интернета

Лицензия

ПШазам

Лицензия

Игра престолов

Лицензия

30
pack

ВАЖНО

!!Акция!!

Alien_RageХит недели

RePack

Resident Evil 21

ИГРА 18+

pack

RePack

Metro:Exodus

!!Акция!!

Alien_Rage

RePack

fifa19

RePack

Assassins Creed: Odyssey

RePack

NEED FOR SPEED™ PAYBACK

3 сезон

9 сезон

Бесстыжие 9 сезон

Все сериалы

все сериалы на PB.wtf

RePack

FAR CRY 5
Ребята, катастрофически не хватает 1900р. для оплаты серверов за Октябрь (всвязи с блокировками трафик упал в 3 раза), 1-2р., выручайте.
  

Тонкая красная линия / The Thin Red Line (Терренс Малик / Terrence Malick) [1998, США, драма, военный, BDRip 720p,Дубляж + MVO+AVO pb.wtf

Тонкая красная линия через торрент pb.wtf

Размер: 10.47 GB | Добавлен: 5 лет 1 мес. назад | Торрент скачан:96 раз
Скачать  

27-09-2014 14:01 Тонкая красная линия Скачать торрент  

Тонкая красная линия / The Thin Red Line
«Every man fights his own war»

Год выпуска: 1998
Жанр: драма, военный
Выпущено: США
Продолжительность: 02:50:47
Перевод: Дубляж,Профессиональный многоголосый (x4),Авторский (одноголосый)
Режиссер: Терренс Малик / Terrence Malick
В ролях: Шон Пенн (1st Sgt. Edward Welsh), Джеймс Кэвизел (Pvt. Witt), Бен Чаплин (Pvt. Bell), Ник Нолти (Lt. Col. Gordon Tall), Элиас Котеас (Capt. James «Bugger» Staros), Джон Кьюсак (Capt. John Gaff), Эдриан Броуди (Cpl. Fife), Вуди Харрельсон (Sgt. Keck), Джон Си Райли (Sgt. Storm), Дэш Майок (Pfc. Doll), Томас Джейн (Pvt. Ash), Джордж Клуни (Capt. Charles Bosche)
Сюжет фильма:
Фильм рассказывает о нескольких месяцах жизни армейского подразделения, в том числе об участии этого подразделения в одной из решающих и сложных операций XX-го века - битве за Гуадалканал. Американские пехотинцы посланы на подмогу морским подразделениям, измотанным схваткой с японцами.


Качество: BDRip 720p (исходник Blu-ray)
Формат: AVC(библиотека кодирования x.264)
Контейнер (Расширение): MKV
Видео кодек: AVC
Аудио кодек:AC3
Видео: AVC, 1280x544 (2.35:1), 4570 Кбит/сек, 23,976 кадр/сек, 0,274 Бит/[Пиксели*Кадры]
Аудио №1: русский / AC3 / 5.1 / 48 kHz / 640 kbps / 16 bit |Дублированный|
Аудио №2: русский / AC3 / 5.1 / 48 kHz / 640 kbps / 16 bit |Профессиональный многоголосый, R5 |
Аудио №3: русский / AC3 / 5.1 / 48 kHz / 384 kbps / 16 bit |Профессиональный многоголосый, Киномания|
Аудио №4: русский / AC3 / 5.1 / 48 kHz / 448 kbps / 16 bit |Профессиональный многоголосый, Позитив-Мультимедиа|
Аудио №5: русский / AC3 / 5.1 / 48 kHz / 640 kbps / 16 bit |Профессиональный многоголосый, Карусель|
Аудио №6: русский / AC3 / 5.1 / 48 kHz / 640 kbps / 16 bit |Авторский, Ю.Живов |
Аудио №7: английский / AC3 / 5.1 / 48 kHz / 640 kbps / 16 bit
Субтитры: русские (R5), русские (Киномания), украинские, английские (English), английские (English, SDH),
Навигация по главам(Чаптеры): есть

Автор рипа: Сообщество:
Format : Matroska
Format version : Version 2
File size : 10.5 GiB
Duration : 2h 50mn
Overall bit rate : 8 777 Kbps
Movie name : Tonkaja krasnaja linija.(1998).BDRip.720p.[denis100]
Encoded date : UTC 2014-01-29 14:19:03
Writing application : mkvmerge v5.8.0 ('No Sleep / Pillow') built on Sep 2 2012 15:37:04
Writing library : libebml v1.2.3 + libmatroska v1.3.0

Video
ID : 1
Format : AVC
Format/Info : Advanced Video Codec
Format profile : High@L4.1
Format settings, CABAC : Yes
Format settings, ReFrames : 11 frames
Codec ID : V_MPEG4/ISO/AVC
Duration : 2h 50mn
Bit rate : 4 570 Kbps
Width : 1 280 pixels
Height : 544 pixels
Display aspect ratio : 2.35:1
Frame rate : 23.976 fps
Color space : YUV
Chroma subsampling : 4:2:0
Bit depth : 8 bits
Scan type : Progressive
Bits/(Pixel*Frame) : 0.274
Stream size : 5.45 GiB (52%)
Title : Tonkaja krasnaja linija.(1998).BDRip.720p.[denis100]
Writing library : x264 core 138 r2358 9e941d1
Encoding settings : cabac=1 / ref=11 / deblock=1:-3:-3 / analyse=0x3:0x133 / me=umh / subme=11 / psy=1 / psy_rd=1.00:0.10 / mixed_ref=1 / me_range=32 / chroma_me=1 / trellis=2 / 8x8dct=1 / cqm=0 / deadzone=21,11 / fast_pskip=0 / chroma_qp_offset=-3 / threads=6 / lookahead_threads=1 / sliced_threads=0 / nr=0 / decimate=0 / interlaced=0 / bluray_compat=0 / constrained_intra=0 / bframes=7 / b_pyramid=2 / b_adapt=2 / b_bias=0 / direct=3 / weightb=1 / open_gop=0 / weightp=2 / keyint=240 / keyint_min=23 / scenecut=40 / intra_refresh=0 / rc=crf / mbtree=0 / crf=18.0 / qcomp=0.60 / qpmin=0 / qpmax=69 / qpstep=4 / ip_ratio=1.40 / pb_ratio=1.30 / aq=1:0.90
Language : English
Default : Yes
Forced : No

Audio #1
ID : 2
Format : AC-3
Format/Info : Audio Coding 3
Mode extension : CM (complete main)
Codec ID : A_AC3
Duration : 2h 50mn
Bit rate mode : Constant
Bit rate : 640 Kbps
Channel(s) : 6 channels
Channel positions : Front: L C R, Side: L R, LFE
Sampling rate : 48.0 KHz
Bit depth : 16 bits
Compression mode : Lossy
Stream size : 782 MiB (7%)
Title : Дублированный
Language : Russian
Default : Yes
Forced : No

Audio #2
ID : 3
Format : AC-3
Format/Info : Audio Coding 3
Mode extension : CM (complete main)
Codec ID : A_AC3
Duration : 2h 50mn
Bit rate mode : Constant
Bit rate : 640 Kbps
Channel(s) : 6 channels
Channel positions : Front: L C R, Side: L R, LFE
Sampling rate : 48.0 KHz
Bit depth : 16 bits
Compression mode : Lossy
Stream size : 782 MiB (7%)
Title : Многоголосый закадровый, R5
Language : Russian
Default : No
Forced : No

Audio #3
ID : 4
Format : AC-3
Format/Info : Audio Coding 3
Mode extension : CM (complete main)
Codec ID : A_AC3
Duration : 2h 50mn
Bit rate mode : Constant
Bit rate : 384 Kbps
Channel(s) : 6 channels
Channel positions : Front: L C R, Side: L R, LFE
Sampling rate : 48.0 KHz
Bit depth : 16 bits
Compression mode : Lossy
Stream size : 469 MiB (4%)
Title : Многоголосый закадровый, Киномания
Language : Russian
Default : No
Forced : No

Audio #4
ID : 5
Format : AC-3
Format/Info : Audio Coding 3
Mode extension : CM (complete main)
Codec ID : A_AC3
Duration : 2h 50mn
Bit rate mode : Constant
Bit rate : 448 Kbps
Channel(s) : 6 channels
Channel positions : Front: L C R, Side: L R, LFE
Sampling rate : 48.0 KHz
Bit depth : 16 bits
Compression mode : Lossy
Stream size : 547 MiB (5%)
Title : Многоголосый закадровый, Позитив-Мультимедиа
Language : Russian
Default : No
Forced : No

Audio #5
ID : 6
Format : AC-3
Format/Info : Audio Coding 3
Mode extension : CM (complete main)
Codec ID : A_AC3
Duration : 2h 50mn
Bit rate mode : Constant
Bit rate : 640 Kbps
Channel(s) : 6 channels
Channel positions : Front: L C R, Side: L R, LFE
Sampling rate : 48.0 KHz
Bit depth : 16 bits
Compression mode : Lossy
Stream size : 782 MiB (7%)
Title : Многоголосый закадровый, Карусель
Language : Russian
Default : No
Forced : No

Audio #6
ID : 7
Format : AC-3
Format/Info : Audio Coding 3
Mode extension : CM (complete main)
Codec ID : A_AC3
Duration : 2h 50mn
Bit rate mode : Constant
Bit rate : 640 Kbps
Channel(s) : 6 channels
Channel positions : Front: L C R, Side: L R, LFE
Sampling rate : 48.0 KHz
Bit depth : 16 bits
Compression mode : Lossy
Stream size : 782 MiB (7%)
Title : Авторский, Ю.Живов
Language : Russian
Default : No
Forced : No

Audio #7
ID : 8
Format : AC-3
Format/Info : Audio Coding 3
Mode extension : CM (complete main)
Codec ID : A_AC3
Duration : 2h 50mn
Bit rate mode : Constant
Bit rate : 640 Kbps
Channel(s) : 6 channels
Channel positions : Front: L C R, Side: L R, LFE
Sampling rate : 48.0 KHz
Bit depth : 16 bits
Compression mode : Lossy
Stream size : 782 MiB (7%)
Title : English
Language : English
Default : No
Forced : No

Text #1
ID : 9
Format : UTF-8
Codec ID : S_TEXT/UTF8
Codec ID/Info : UTF-8 Plain Text
Title : Русские, R5
Language : Russian
Default : No
Forced : No

Text #2
ID : 10
Format : UTF-8
Codec ID : S_TEXT/UTF8
Codec ID/Info : UTF-8 Plain Text
Title : Русские, Киномания
Language : Russian
Default : No
Forced : No

Text #3
ID : 11
Format : UTF-8
Codec ID : S_TEXT/UTF8
Codec ID/Info : UTF-8 Plain Text
Title : Украинские
Language : Ukrainian
Default : No
Forced : No

Text #4
ID : 12
Format : UTF-8
Codec ID : S_TEXT/UTF8
Codec ID/Info : UTF-8 Plain Text
Title : English
Language : English
Default : No
Forced : No

Text #5
ID : 13
Format : UTF-8
Codec ID : S_TEXT/UTF8
Codec ID/Info : UTF-8 Plain Text
Title : English, SDH
Language : English
Default : No
Forced : No

Menu
00:00:00.000 : en:Main Titles: Melanesia
00:10:49.440 : en:The Brig
00:15:54.203 : en:The Closer to Caesar
00:20:19.426 : en:Charlie Company
00:25:58.431 : en:Guadalcanal
00:29:32.813 : en:Witt with the Wounded
00:38:02.906 : en:Hill 210
00:41:25.733 : en:Dawn
00:51:15.614 : en:Staros' Attack
00:59:58.136 : en:Keck's Mistake
01:05:15.912 : en:Property (Tella's Death)
01:11:16.772 : en:Refusing an Order
01:20:15.060 : en:Tall Visits the Line
01:26:40.445 : en:The Unguarded Ledge
01:39:53.154 : en:Welsh and Witt
01:44:51.410 : en:The Bunker
01:55:22.249 : en:Gaff and Tall
02:01:02.630 : en:The Japanese Bivouac
02:07:31.018 : en:The Mop-Up
02:14:49.915 : en:Nature's Cruel
02:23:06.286 : en:Staros Leaves
02:30:24.265 : en:The Airfield
02:37:24.435 : en:A Letter
pb.wtf



Скачать Тонкая красная линия через торрент http://pic.kartinco.top/images/7/dktxj.jpg Скачать фильм Тонкая красная линия через торрент бесплантно в хорошем качестве В ролях: Шон Пенн (1st Sgt. Edward Welsh), Джеймс Кэвизел (Pvt. Witt), Бен Чаплин (Pvt. Bell), Ник Нолти (Lt. Col. Gordon Tall), Элиас ... 10 10 8
Info! Золотая раздача, скачанное не засчитывается.
Торрент: Зарегистрирован [2014-09-27 14:01] · скачан: 96 раз
Статус: √ проверено
Размер: 10.47 GB
Как cкачать? Как скачать Тонкая красная линия через торрент | qTorrent


>> Регистрируемся здесь <<






Отзывы и комментарии о схеме читаем и пишем здесь: ---> Отзывы и комментарии о схеме

Новые благодарочки в телеграм довольных пользователей:
скриншот   скриншот   скриншот   скриншот   скриншот
    Дорогой пользователь! Огромная просьба, поблагодарите релизера, оцените раздачу и оставьте свои комментарий, если Вы скачали Тонкая красная линия через торрент бесплатно! Внесите свою лепту в развитие PiratBit!
    Комментировать посты могут только пользователи прошедшие не сложную регистрацию
    Показать сообщения:    

    Тонкая красная линия через торрент
    Скачать бесплатно Тонкая красная линия
    Тонкая красная линия скачать торрент
    Тонкая красная линия смотреть онлайн
    Cкачать фильм Тонкая красная линия бесплатно
    Тонкая красная линия скачать торрент в хорошем качестве
    Тонкая красная линия смотреть онлайн бесплатно в хорошем качестве


    Вы не можете начинать темы
    Вы не можете отвечать на сообщения
    Вы не можете редактировать свои сообщения
    Вы не можете удалять свои сообщения
    Вы не можете голосовать в опросах
    Вы не можете прикреплять файлы к сообщениям
    Вы можете скачивать файлы