Всегда рабочее зеркало просто перед .vidak.icu напиши любое слово или цифру, Пример http://5hu.vidak.icu

>

7.4

iTunes

7.4

2 сезон

9.4

1 сезон

1

7.4

2 сезон

7.2

iTunes

6.0

MVO

13

6.1

iTunes

8.3

Пиратка

30

ULTIMATE

pack

9.9

Лицензия

ВАЖНО

ИГРА 18+

pack

7.3

RePack

MK11

7.7

RePack

jed

7.8

RePack

fifa19

8.5

RePack

RDR2

RePack

NEED FOR SPEED™ PAYBACK

1 сезон

9 сезон

Бесстыжие 9 сезон

Все сериалы

все сериалы на PB.wtf

RePack

FAR CRY 5

Anonymous, добрый день, мы катастрофически не успеваем собрать деньги на оплату серверов, помогите нам пожалуйста 5,10,15р., для нас важна любая помощь . В качестве благодарности мы отключим Вам всю рекламу на сайте (укажите свой ник в строку Ваше имя)!

×
  
Magnet ссылка

Дом покера / The Poker House (Лори Петти / Lori Petty) [2007, США, драма, BDRip 720p,Авторский (одноголосый) pb.wtf

Дом покера через торрент pb.wtf

Размер: 4.37 GB | Добавлен: 7 лет 3 мес. назад | Торрент скачан:7 раз
Смотреть онлайн Дом покера | Скачать    Ребята, помогите собрать деньги на оплату серверов!!!

27-09-2014 19:36 Дом покера Скачать торрент  

Дом покера / The Poker House
«Фильм основан на реальных событиях, происходивших с режиссёром Лори Петти в 1976 году»

Год выпуска: 2007
Жанр: драма
Выпущено: США
Продолжительность: 01:33:12
Перевод: Авторский (одноголосый)
Режиссер: Лори Петти / Lori Petty
В ролях: Дженнифер Лоуренс (Agnes), Джейвон Джонсон (1st «John»), Софи Бейрли (Bee), Букем Вудбайн (Duval), Хлоя Грейс Морец (Cammie), Кэйси Таттон (Sheila), Сэльма Блэр (Sarah), Мэттью Гердиш (Earl), Роберт Гердиш (Burl), Лукас Эллман (Clyde Junior), Кимберли Меллен (Sheila's Mom), Эндрю Ротенберг (Clyde Senior)

Сюжет фильма:

Драматизация подростковых лет Лори Петти, проведенных в небольшом городке Айова.


Автор рипа: Сообщество:
За работу в фильме “Дом покера” Дженнифер Лоуренс была награждена на крупном Голливудском фестивале в Лос-Анджелесе - за выдающееся исполнение.
Качество: BDRip 720p (исходник Blu-ray)
Формат: AVC(библиотека кодирования x.264)
Контейнер (Расширение): MKV
Видео кодек: AVC
Аудио кодек:AC3
Видео: AVC, 1280x720 (16:9), 4989 Кбит/сек, 23,976 кадр/сек, 0,226 Бит/[Пиксели*Кадры]
Аудио №1: русский / AC3 / 5.1 / 48 kHz / 640 kbps / 16 bit |Авторский одноголосый (А. Дольский)|
Аудио №2: русский / AC3 / 5.1 / 48 kHz / 448 kbps / 16 bit |Авторский одноголосый (М.Чадов)|
Аудио №3: английский / AC3 / 5.1 / 48 kHz / 640 kbps / 16 bit
Субтитры: русские (Russian),
Навигация по главам(Чаптеры): есть

Format : Matroska
Format version : Version 2
File size : 4.37 GiB
Duration : 1h 33mn
Overall bit rate : 6 708 Kbps
Movie name : Dom pokera.(2008).BDRip.720p.[denis100]
Encoded date : UTC 2014-04-04 10:34:31
Writing application : mkvmerge v5.8.0 ('No Sleep / Pillow') built on Sep 2 2012 15:37:04
Writing library : libebml v1.2.3 + libmatroska v1.3.0

Video
ID : 1
Format : AVC
Format/Info : Advanced Video Codec
Format profile : High@L4.1
Format settings, CABAC : Yes
Format settings, ReFrames : 9 frames
Codec ID : V_MPEG4/ISO/AVC
Duration : 1h 33mn
Bit rate : 4 989 Kbps
Width : 1 280 pixels
Height : 720 pixels
Display aspect ratio : 16:9
Frame rate : 23.976 fps
Color space : YUV
Chroma subsampling : 4:2:0
Bit depth : 8 bits
Scan type : Progressive
Bits/(Pixel*Frame) : 0.226
Stream size : 3.16 GiB (72%)
Title : Dom pokera.(2008).BDRip.720p.[denis100]
Writing library : x264 core 138 r2358 9e941d1
Encoding settings : cabac=1 / ref=9 / deblock=1:-3:-3 / analyse=0x3:0x133 / me=umh / subme=11 / psy=1 / psy_rd=1.00:0.10 / mixed_ref=1 / me_range=32 / chroma_me=1 / trellis=2 / 8x8dct=1 / cqm=0 / deadzone=21,11 / fast_pskip=0 / chroma_qp_offset=-3 / threads=6 / lookahead_threads=1 / sliced_threads=0 / nr=0 / decimate=1 / interlaced=0 / bluray_compat=0 / constrained_intra=0 / bframes=7 / b_pyramid=2 / b_adapt=2 / b_bias=0 / direct=3 / weightb=1 / open_gop=0 / weightp=2 / keyint=240 / keyint_min=23 / scenecut=40 / intra_refresh=0 / rc=2pass / mbtree=0 / bitrate=4989 / ratetol=1.0 / qcomp=0.60 / qpmin=0 / qpmax=69 / qpstep=4 / cplxblur=20.0 / qblur=0.5 / ip_ratio=1.40 / pb_ratio=1.30 / aq=1:0.90
Language : English
Default : Yes
Forced : No

Audio #1
ID : 2
Format : AC-3
Format/Info : Audio Coding 3
Mode extension : CM (complete main)
Codec ID : A_AC3
Duration : 1h 33mn
Bit rate mode : Constant
Bit rate : 640 Kbps
Channel(s) : 6 channels
Channel positions : Front: L C R, Side: L R, LFE
Sampling rate : 48.0 KHz
Bit depth : 16 bits
Compression mode : Lossy
Stream size : 427 MiB (10%)
Title : Авторский одноголосый (А. Дольский)
Language : Russian
Default : Yes
Forced : No

Audio #2
ID : 3
Format : AC-3
Format/Info : Audio Coding 3
Mode extension : CM (complete main)
Codec ID : A_AC3
Duration : 1h 33mn
Bit rate mode : Constant
Bit rate : 448 Kbps
Channel(s) : 6 channels
Channel positions : Front: L C R, Side: L R, LFE
Sampling rate : 48.0 KHz
Bit depth : 16 bits
Compression mode : Lossy
Stream size : 299 MiB (7%)
Title : Авторский одноголосый (М.Чадов)
Language : Russian
Default : No
Forced : No

Audio #3
ID : 4
Format : AC-3
Format/Info : Audio Coding 3
Mode extension : CM (complete main)
Codec ID : A_AC3
Duration : 1h 33mn
Bit rate mode : Constant
Bit rate : 640 Kbps
Channel(s) : 6 channels
Channel positions : Front: L C R, Side: L R, LFE
Sampling rate : 48.0 KHz
Bit depth : 16 bits
Compression mode : Lossy
Stream size : 427 MiB (10%)
Title : English
Language : English
Default : No
Forced : No

Text
ID : 5
Format : UTF-8
Codec ID : S_TEXT/UTF8
Codec ID/Info : UTF-8 Plain Text
Title : Russian
Language : Russian
Default : No
Forced : No

Menu
00:00:00.000 : en:00:00:00.000
00:07:25.027 : en:00:07:25.027
00:15:22.504 : en:00:15:22.504
00:23:13.350 : en:00:23:13.350
00:30:16.481 : en:00:30:16.481
00:39:02.131 : en:00:39:02.131
00:46:20.777 : en:00:46:20.777
00:50:42.205 : en:00:50:42.205
00:58:29.214 : en:00:58:29.214
01:06:12.635 : en:01:06:12.635
01:15:52.506 : en:01:15:52.506
01:21:59.289 : en:01:21:59.289
x264 [info]: frame I:45 Avg QP:15.24 size:103475
x264 [info]: frame P:611 Avg QP:18.35 size: 42084
x264 [info]: frame B:1880 Avg QP:19.38 size: 18807
pb.wtf



Скачать Дом покера через торрент http://i67.fastpic.ru/big/2014/0927/e0/0928a1f911946150c4fa20504a5fe6e0.png Скачать, смотреть онлайн Дом покера бесплантно в хорошем качестве В ролях: Дженнифер Лоуренс (Agnes), Джейвон Джонсон (1st «John»), Софи Бейрли (Bee), Букем Вудбайн (Duval), Хлоя Грейс Морец (Cammie), ... 10 10 1
Info! Золотая раздача, скачанное не засчитывается.
Торрент: Зарегистрирован [2014-09-27 19:36] · скачан: 7 раз
Статус: √ проверено
Размер: 4.37 GB
Как cкачать? Как скачать Дом покера через торрент | UTorrent

% Раздел Тема Автор DL S | L
Фильмы с авторской озвучкой [ 2.18 GB ] Дом покера / The Poker House [2007 BDRip-AVCАвторский KEYS Скачать
1 | 0

28-11-2019 20:33  

Отключить всю рекламу на сайте

    Дорогой пользователь! Огромная просьба, поблагодарите релизера, оцените раздачу и оставьте свои комментарий, если Вы скачали Дом покера через торрент бесплатно!
    Комментировать посты могут только пользователи прошедшие не сложную регистрацию
    Показать сообщения:    

    Дом покера через торрент
    Скачать бесплатно Дом покера
    Дом покера скачать торрент
    Дом покера смотреть онлайн
    Cкачать фильм Дом покера бесплатно
    Дом покера скачать торрент в хорошем качестве
    Дом покера смотреть онлайн бесплатно в хорошем качестве


    Вы не можете начинать темы
    Вы не можете отвечать на сообщения
    Вы не можете редактировать свои сообщения
    Вы не можете удалять свои сообщения
    Вы не можете голосовать в опросах
    Вы не можете прикреплять файлы к сообщениям
    Вы можете скачивать файлы