Ссылка на приватное зеркало нашего сайта всего за 1$. Внимание количество ограничено!!!

2 сезон

iTunes

1 сезон

1

iTunes

iTunes

iTunes

1 сезон

RePack

30

ИГРА 18+

pack

ВАЖНО

!!Акция!!

Alien_RageХит недели

RePack

MK11
pack

Забери бонус

RePack

jed

!!Акция!!

Alien_Rage

RePack

fifa19

RePack

Assassins Creed: Odyssey

RePack

NEED FOR SPEED™ PAYBACK

4 сезон

9 сезон

Бесстыжие 9 сезон

Все сериалы

все сериалы на PB.wtf

RePack

FAR CRY 5
  

Последний сеанс / The Last Showing (Филип Хоукинс) [2014, триллер, HDRip, Любительский (одноголосый) [qwerty] pb.wtf

Последний сеанс через торрент pb.wtf

Размер: 1.3 GB | Добавлен: 6 лет 1 мес. назад | Торрент скачан:52 раза
Скачать  

27-09-2014 20:54 Последний сеанс Скачать торрент  

Последний сеанс / The Last Showing


Год выпуска: 2014
Страна: Великобритания
Жанр:триллер
Продолжительность:01:25:11
Перевод:Любительский (одноголосый) [qwerty]
Режиссер:Филип Хоукинс

  • В ролях:

    Роберт Инглунд (Stuart), Финн Джонс (Martin), Эмили Беррингтон (Allie), Кит Аллен (Collins), Малачи Кирби (Clive), Крис Гир (Jamie), Пол Блэкуэлл (Armed officer), Стив Гарри (Officer 1), Алистер МакНаб (Armed Response Officer), Дэн Морган (Additional Dialogue), Lee Palmer (Police Officer SO19), Ник Пирс (Officer 2)

  • Описание:
    Парень и девушка, попавшие в ловушку в кинотеатре, невольно становятся актерами в фильме, который снимают камеры видеонаблюдения.

  • Мировая премьера:22 августа 2014

    Качество: HDRip
    Формат:AVI
    Видео кодек: XviD
    Аудио кодек:AC3
    Видео: XviD, 720x304 (2.35:1), 1797 kbps, 25 fps, 0,329 bpp
    Аудио: AC3 / 5.1 / 48 kHz / 384 kbps / 16 bit


    Код:

    General
    Complete name                            : D:\Торенты\The.Last.Showing.2014.avi
    Format                                   : AVI
    Format/Info                              : Audio Video Interleave
    File size                                : 1.30 GiB
    Duration                                 : 1h 25mn
    Overall bit rate                         : 2 191 Kbps
    Writing application                      : VirtualDubMod 1.5.10.2 (build 2540/release)
    Writing library                          : VirtualDubMod build 2540/release

    Video
    ID                                       : 0
    Format                                   : MPEG-4 Visual
    Format profile                           : Advanced Simple@L5
    Format settings, BVOP                    : 2
    Format settings, QPel                    : No
    Format settings, GMC                     : No warppoints
    Format settings, Matrix                  : Default (H.263)
    Muxing mode                              : Packed bitstream
    Codec ID                                 : XVID
    Codec ID/Hint                            : XviD
    Duration                                 : 1h 25mn
    Bit rate                                 : 1 798 Kbps
    Width                                    : 720 pixels
    Height                                   : 304 pixels
    Display aspect ratio                     : 2.35:1
    Frame rate                               : 25.000 fps
    Color space                              : YUV
    Chroma subsampling                       : 4:2:0
    Bit depth                                : 8 bits
    Scan type                                : Progressive
    Compression mode                         : Lossy
    Bits/(Pixel*Frame)                       : 0.329
    Stream size                              : 1.07 GiB (82%)
    Writing library                          : XviD 64

    Audio
    ID                                       : 1
    Format                                   : AC-3
    Format/Info                              : Audio Coding 3
    Mode extension                           : CM (complete main)
    Codec ID                                 : 2000
    Duration                                 : 1h 25mn
    Bit rate mode                            : Constant
    Bit rate                                 : 384 Kbps
    Channel(s)                               : 6 channels
    Channel positions                        : Front: L C R, Side: L R, LFE
    Sampling rate                            : 48.0 KHz
    Bit depth                                : 16 bits
    Compression mode                         : Lossy
    Stream size                              : 234 MiB (18%)
    Alignment                                : Split accross interleaves
    Interleave, duration                     : 40 ms (1.00 video frame)
    Interleave, preload duration             : 500 ms
    Title                                    : Русская дорожка_qwerty_kinoperevod.getbb.org

    Скриншоты:



    © Оформление by Ravenpb.wtf



  • Скачать Последний сеанс через торрент http://pic.kartinco.top/images/6/stazu.jpg Скачать фильм Последний сеанс через торрент бесплантно в хорошем качестве Описание:Парень и девушка, попавшие в ловушку в кинотеатре, невольно становятся актерами в фильме, который снимают камеры ... 10 10 1
    Торрент: Зарегистрирован [2014-09-27 20:54] · скачан: 52 раз
    Статус: T временная
    Размер: 1.3 GB
    Как cкачать? Как скачать Последний сеанс через торрент | qTorrent

    28-11-2019 20:33  

    Отключить всю рекламу на сайте

      Дорогой пользователь! Огромная просьба, поблагодарите релизера, оцените раздачу и оставьте свои комментарий, если Вы скачали Последний сеанс через торрент бесплатно! Внесите свою лепту в развитие PiratBit!
      Комментировать посты могут только пользователи прошедшие не сложную регистрацию
      Показать сообщения:    

      Последний сеанс через торрент
      Скачать бесплатно Последний сеанс
      Последний сеанс скачать торрент
      Последний сеанс смотреть онлайн
      Cкачать фильм Последний сеанс бесплатно
      Последний сеанс скачать торрент в хорошем качестве
      Последний сеанс смотреть онлайн бесплатно в хорошем качестве


      Вы не можете начинать темы
      Вы не можете отвечать на сообщения
      Вы не можете редактировать свои сообщения
      Вы не можете удалять свои сообщения
      Вы не можете голосовать в опросах
      Вы не можете прикреплять файлы к сообщениям
      Вы можете скачивать файлы