2 сезон

iTunes

1 сезон

1

iTunes

iTunes

iTunes

1 сезон

RePack

30

ИГРА 18+

pack

ВАЖНО

!!Акция!!

Alien_RageХит недели

RePack

MK11
pack

Забери бонус

RePack

jed

!!Акция!!

Alien_Rage

RePack

fifa19

RePack

Assassins Creed: Odyssey

RePack

NEED FOR SPEED™ PAYBACK

4 сезон

9 сезон

Бесстыжие 9 сезон

Все сериалы

все сериалы на PB.wtf

RePack

FAR CRY 5
  

Любовь с уведомлением / Two Weeks Notice (Марк Лоуренс / Marc Lawrence) [2002, США, Австралия, мелодрама, комедия, BDRip 720p,Дубляж - [Лицензия] pb.wtf

Любовь с уведомлением через торрент pb.wtf

Размер: 4.37 GB | Добавлен: 6 лет 1 мес. назад | Торрент скачан:62 раза
Скачать  

27-09-2014 21:55 Любовь с уведомлением Скачать торрент  

Любовь с уведомлением / Two Weeks Notice
«A comedy about love at last glance»

Год выпуска: 2002
Жанр: мелодрама, комедия
Выпущено: США, Австралия
Продолжительность: 01:41:12
Перевод: Дубляж - [Лицензия]

Режиссер: Марк Лоуренс / Marc Lawrence
В ролях: Сандра Буллок (Lucy Kelson), Хью Грант (George Wade), Алисия Уитт (June Carver), Дэна Айви (Ruth Kelson), Роберт Клейн (Larry Kelson), Хезер Бёрнс (Meryl Brooks), Дэвид Хэйг (Howard Wade), Дориан Миссик (Tony), Джозеф Бадалуччо мл. (Construction Foreman), Джонатан Докучиц (Tom), Винни Кокс (Melanie Corman), Джанин ЛаМанна (Elaine Cominsky)
Сюжет фильма:
Джордж Уэйд и шага не может сделать без Люси Келсон, работающей главным консультантом в его корпорации. Однако обращается он с ней скорее как с няней, а не как с блестящим юристом, окончившим Гарвард. По прошествии года все это надоедает Люси, и она решает уволиться. Джордж соглашается ее отпустить, но с одним условием - она должна найти себе достойную замену...


Качество: BDRip 720p (исходник Blu-ray)
Формат: AVC(библиотека кодирования x.264)
Контейнер (Расширение): MKV
Видео кодек: AVC
Аудио кодек:AC3
Видео: AVC, 1272x720 (16:9), 5352 Кбит/сек, 23,976 кадр/сек, 0,244 Бит/[Пиксели*Кадры]
Аудио №1: русский / AC3 / 5.1 / 48 kHz / 384 kbps / 16 bit |Дубляж - [Лицензия]|
Аудио №2: английский / AC3 / 5.1 / 48 kHz / 448 kbps / 16 bit
Субтитры: русские (Russian), русские (Russian (Forced)),
Навигация по главам(Чаптеры): есть

Автор рипа: Сообщество:
Format : Matroska
Format version : Version 2
File size : 4.37 GiB
Duration : 1h 41mn
Overall bit rate : 6 186 Kbps
Movie name : Ljubov' s uvedomleniem.(2002).BDRip.720p.[denis100]
Encoded date : UTC 2014-08-28 08:57:58
Writing application : mkvmerge v5.8.0 ('No Sleep / Pillow') built on Sep 2 2012 15:37:04
Writing library : libebml v1.2.3 + libmatroska v1.3.0

Video
ID : 1
Format : AVC
Format/Info : Advanced Video Codec
Format profile : High@L4.1
Format settings, CABAC : Yes
Format settings, ReFrames : 9 frames
Codec ID : V_MPEG4/ISO/AVC
Duration : 1h 41mn
Bit rate : 5 352 Kbps
Width : 1 272 pixels
Height : 720 pixels
Display aspect ratio : 16:9
Frame rate : 23.976 fps
Color space : YUV
Chroma subsampling : 4:2:0
Bit depth : 8 bits
Scan type : Progressive
Bits/(Pixel*Frame) : 0.244
Stream size : 3.70 GiB (85%)
Title : Ljubov' s uvedomleniem.(2002).BDRip.720p.[denis100]
Writing library : x264 core 142 r2453 ea0ca51
Encoding settings : cabac=1 / ref=9 / deblock=1:-3:-3 / analyse=0x3:0x133 / me=umh / subme=11 / psy=1 / psy_rd=1.00:0.00 / mixed_ref=1 / me_range=32 / chroma_me=1 / trellis=2 / 8x8dct=1 / cqm=0 / deadzone=21,11 / fast_pskip=0 / chroma_qp_offset=-2 / threads=6 / lookahead_threads=1 / sliced_threads=0 / nr=0 / decimate=1 / interlaced=0 / bluray_compat=0 / constrained_intra=0 / bframes=8 / b_pyramid=2 / b_adapt=2 / b_bias=0 / direct=3 / weightb=1 / open_gop=0 / weightp=2 / keyint=240 / keyint_min=23 / scenecut=40 / intra_refresh=0 / rc=2pass / mbtree=0 / bitrate=5352 / ratetol=1.0 / qcomp=0.60 / qpmin=0 / qpmax=69 / qpstep=4 / cplxblur=20.0 / qblur=0.5 / ip_ratio=1.40 / pb_ratio=1.30 / aq=1:1.00
Language : English
Default : Yes
Forced : No

Audio #1
ID : 2
Format : AC-3
Format/Info : Audio Coding 3
Mode extension : CM (complete main)
Codec ID : A_AC3
Duration : 1h 41mn
Bit rate mode : Constant
Bit rate : 384 Kbps
Channel(s) : 6 channels
Channel positions : Front: L C R, Side: L R, LFE
Sampling rate : 48.0 KHz
Bit depth : 16 bits
Compression mode : Lossy
Stream size : 278 MiB (6%)
Title : Дублированный
Language : Russian
Default : Yes
Forced : No

Audio #2
ID : 3
Format : AC-3
Format/Info : Audio Coding 3
Mode extension : CM (complete main)
Codec ID : A_AC3
Duration : 1h 41mn
Bit rate mode : Constant
Bit rate : 448 Kbps
Channel(s) : 6 channels
Channel positions : Front: L C R, Side: L R, LFE
Sampling rate : 48.0 KHz
Bit depth : 16 bits
Compression mode : Lossy
Stream size : 324 MiB (7%)
Title : English
Language : English
Default : No
Forced : No

Text #1
ID : 4
Format : UTF-8
Codec ID : S_TEXT/UTF8
Codec ID/Info : UTF-8 Plain Text
Title : Russian
Language : Russian
Default : No
Forced : No

Text #2
ID : 5
Format : UTF-8
Codec ID : S_TEXT/UTF8
Codec ID/Info : UTF-8 Plain Text
Title : Russian (Forced)
Language : Russian
Default : Yes
Forced : No

Menu
00:00:00.000 : en:00:00:00.000
00:02:21.558 : en:00:02:21.558
00:04:31.396 : en:00:04:31.396
00:06:44.862 : en:00:06:44.862
00:11:11.921 : en:00:11:11.921
00:15:11.535 : en:00:15:11.535
00:20:27.100 : en:00:20:27.100
00:23:39.751 : en:00:23:39.751
00:28:48.768 : en:00:28:48.768
00:31:41.232 : en:00:31:41.232
00:35:41.305 : en:00:35:41.305
00:39:27.865 : en:00:39:27.865
00:41:01.500 : en:00:41:01.500
00:43:32.318 : en:00:43:32.318
00:49:05.525 : en:00:49:05.525
00:53:39.299 : en:00:53:39.299
00:55:57.896 : en:00:55:57.896
01:00:18.906 : en:01:00:18.906
01:04:41.794 : en:01:04:41.794
01:08:31.190 : en:01:08:31.190
01:14:14.992 : en:01:14:14.992
01:15:49.211 : en:01:15:49.211
01:19:52.120 : en:01:19:52.120
01:23:12.946 : en:01:23:12.946
01:25:17.112 : en:01:25:17.112
01:28:09.325 : en:01:28:09.325
01:32:33.256 : en:01:32:33.256
01:36:14.977 : en:01:36:14.977
pb.wtf



Скачать Любовь с уведомлением через торрент http://i68.fastpic.ru/big/2014/0928/fc/f8b0bfb0212d2f16bc8709dfca12fffc.png Скачать фильм Любовь с уведомлением через торрент бесплантно в хорошем качестве В ролях: Сандра Буллок (Lucy Kelson), Хью Грант (George Wade), Алисия Уитт (June Carver), Дэна Айви (Ruth Kelson), Роберт Клейн (Larry ... 9.8 10 4
Info! Золотая раздача, скачанное не засчитывается.
Торрент: Зарегистрирован [2014-09-27 21:55] · скачан: 62 раз
Статус: √ проверено
Размер: 4.37 GB
Как cкачать? Как скачать Любовь с уведомлением через торрент | qTorrent

28-11-2019 20:33  

Отключить всю рекламу на сайте

    Дорогой пользователь! Огромная просьба, поблагодарите релизера, оцените раздачу и оставьте свои комментарий, если Вы скачали Любовь с уведомлением через торрент бесплатно! Внесите свою лепту в развитие PiratBit!
    Комментировать посты могут только пользователи прошедшие не сложную регистрацию
    Показать сообщения:    

    Любовь с уведомлением через торрент
    Скачать бесплатно Любовь с уведомлением
    Любовь с уведомлением скачать торрент
    Любовь с уведомлением смотреть онлайн
    Cкачать фильм Любовь с уведомлением бесплатно
    Любовь с уведомлением скачать торрент в хорошем качестве
    Любовь с уведомлением смотреть онлайн бесплатно в хорошем качестве


    Вы не можете начинать темы
    Вы не можете отвечать на сообщения
    Вы не можете редактировать свои сообщения
    Вы не можете удалять свои сообщения
    Вы не можете голосовать в опросах
    Вы не можете прикреплять файлы к сообщениям
    Вы можете скачивать файлы