Ссылка на приватное зеркало нашего сайта всего за 1$. Внимание количество ограничено!!!

2 сезон

iTunes

1 сезон

1

iTunes

iTunes

iTunes

1 сезон

RePack

30

ИГРА 18+

pack

ВАЖНО

!!Акция!!

Alien_RageХит недели

RePack

MK11
pack

Забери бонус

RePack

jed

!!Акция!!

Alien_Rage

RePack

fifa19

RePack

Assassins Creed: Odyssey

RePack

NEED FOR SPEED™ PAYBACK

4 сезон

9 сезон

Бесстыжие 9 сезон

Все сериалы

все сериалы на PB.wtf

RePack

FAR CRY 5
  

Холодный расчет (мини-сериал) / Серии 1-4 из 4 (Андрей Балашов) [2014, Россия, мелодрама, SATRip) pb.wtf

Холодный расчет через торрент pb.wtf

Размер: 2.15 GB | Добавлен: 6 лет 1 мес. назад | Торрент скачан:277 раз
Скачать  

28-09-2014 01:39 Холодный расчет Скачать торрент  

Холодный расчет


  • Год выпуска: 2014
  • Страна: Россия
  • Жанр: мелодрама
  • Продолжительность: 00:43:18
  • Перевод: Не требуется

  • Режиссер: Андрей Балашов
  • В ролях:

    Даниил Страхов (Игорь Стрельников), Евгения Чиркова (Рита), Владимир Панков (Сергей Воронов), Петр Баранчеев, Юрий Ицков, Андрей Терентьев (Андрей), Олег Алмазов (Митя), Андрей Белоцерковский (инспектор ДПС), Алла Вербицкая (врач)

  • Описание:
    Карьера известной в прошлом певицы Марты Вейро (Риты) клонится к закату. Ее продюсер и гражданский муж Сергей Воронов не может смириться с финансовым крахом и разрабатывает криминальный план обогащения. Умело манипулируя Ритой, Воронов убеждает ее, что путь к их счастью лежит через преступление: она должна подставить богатого поклонника Игоря, с которым в юности у нее был бурный роман. Ситуация осложняется еще и тем, что Рита по-прежнему испытывает романтические чувства к Игорю. Под давлением Сергея Рита совершает подлость. Но идеальный план подельников дает трещину - Игорь сбегает от правосудия и меняет внешность. Теперь Рите и Сергею нет покоя ни днем, ни ночью...
  • Рейтинг:



  • Качество: SATRip
  • Формат: :AVI
  • Видео кодек: XviD
  • Аудио кодек: AC3
  • Видео: 720x400 (16:9), 1574 kbps, 25 fps, 0,219 bpp
  • Аудио: 2.0 / 48 kHz / 192 kbps / 16 bit
  • Релиз от: GEKADOL

    Код:

    General
    Complete name                            : I:\Cholodnij.raschet.2014.SATRip.Files-x.GeneralFilm\04.Cholodnij.raschet.2014.SATRip.Files-x.GeneralFilm.avi
    Format                                   : AVI
    Format/Info                              : Audio Video Interleave
    File size                                : 550 MiB
    Duration                                 : 43mn 18s
    Overall bit rate                         : 1 776 Kbps
    Writing application                      : VirtualDubMod 1.5.10.3 | www.virtualdub-fr.org || (build 2550/release)
    Writing library                          : VirtualDubMod build 2550/release

    Video
    ID                                       : 0
    Format                                   : MPEG-4 Visual
    Format profile                           : Advanced Simple@L5
    Format settings, BVOP                    : 1
    Format settings, QPel                    : No
    Format settings, GMC                     : No warppoints
    Format settings, Matrix                  : Custom
    Codec ID                                 : XVID
    Codec ID/Hint                            : XviD
    Duration                                 : 43mn 18s
    Bit rate                                 : 1 574 Kbps
    Width                                    : 720 pixels
    Height                                   : 400 pixels
    Display aspect ratio                     : 16:9
    Frame rate                               : 25.000 fps
    Color space                              : YUV
    Chroma subsampling                       : 4:2:0
    Bit depth                                : 8 bits
    Scan type                                : Progressive
    Compression mode                         : Lossy
    Bits/(Pixel*Frame)                       : 0.219
    Stream size                              : 488 MiB (89%)
    Writing library                          : XviD 73

    Audio
    ID                                       : 1
    Format                                   : AC-3
    Format/Info                              : Audio Coding 3
    Mode extension                           : CM (complete main)
    Codec ID                                 : 2000
    Duration                                 : 43mn 18s
    Bit rate mode                            : Constant
    Bit rate                                 : 192 Kbps
    Channel(s)                               : 2 channels
    Channel positions                        : Front: L R
    Sampling rate                            : 48.0 KHz
    Bit depth                                : 16 bits
    Compression mode                         : Lossy
    Stream size                              : 59.5 MiB (11%)
    Alignment                                : Split accross interleaves
    Interleave, duration                     : 40 ms (1.00 video frame)
    Interleave, preload duration             : 500 ms


    Скриншоты:


    pb.wtf



  • Скачать Холодный расчет через торрент http://i63.fastpic.ru/big/2014/0928/09/de9a3e6442e1ee693729ceb001499e09.jpg Скачать фильм Холодный расчет через торрент бесплантно в хорошем качестве Описание: Карьера известной в прошлом певицы Марты Вейро (Риты) клонится к закату. Ее продюсер и гражданский муж Сергей Воронов не может ... 9 10 9
    Info! Золотая раздача, скачанное не засчитывается.
    Торрент: Зарегистрирован [2014-09-28 01:39] · скачан: 277 раз
    Статус: √ проверено
    Размер: 2.15 GB
    Как cкачать? Как скачать Холодный расчет через торрент | qTorrent

    28-11-2019 20:33  

    Отключить всю рекламу на сайте

    28-11-2014 13:24 Холодный расчет Скачать торрент  

    А почему он без звука???pb.wtf



    10-12-2014 16:54 Холодный расчет Скачать торрент  

    Первая серия реально без звука (проверял на компе и телевизоре).
    UPD: Звук есть только во второй серии. Это прискорбно.pb.wtf



      Дорогой пользователь! Огромная просьба, поблагодарите релизера, оцените раздачу и оставьте свои комментарий, если Вы скачали Холодный расчет через торрент бесплатно! Внесите свою лепту в развитие PiratBit!
      Комментировать посты могут только пользователи прошедшие не сложную регистрацию
      Показать сообщения:    

      Холодный расчет через торрент
      Скачать бесплатно Холодный расчет
      Холодный расчет скачать торрент
      Холодный расчет смотреть онлайн
      Cкачать фильм Холодный расчет бесплатно
      Холодный расчет скачать торрент в хорошем качестве
      Холодный расчет смотреть онлайн бесплатно в хорошем качестве


      Вы не можете начинать темы
      Вы не можете отвечать на сообщения
      Вы не можете редактировать свои сообщения
      Вы не можете удалять свои сообщения
      Вы не можете голосовать в опросах
      Вы не можете прикреплять файлы к сообщениям
      Вы можете скачивать файлы