Всегда рабочее зеркало просто перед .vidak.icu напиши любое слово или цифру, Пример http://yja.vidak.icu

>

7.4

iTunes

7.4

2 сезон

6.6

iTunes

1

7.4

2 сезон

7.2

iTunes

6.0

MVO

13

6.1

iTunes

8.3

Пиратка

30

ULTIMATE

pack

9.9

Лицензия

ВАЖНО

ИГРА 18+

pack

7.3

RePack

MK11

7.7

RePack

jed

7.8

RePack

fifa19

8.5

RePack

RDR2

RePack

NEED FOR SPEED™ PAYBACK

1 сезон

9 сезон

Бесстыжие 9 сезон

Все сериалы

все сериалы на PB.wtf

RePack

FAR CRY 5

Anonymous, добрый вечер, мы катастрофически не успеваем собрать деньги на оплату серверов, помогите нам пожалуйста 5,10,15р., для нас важна любая помощь . В качестве благодарности мы отключим Вам всю рекламу на сайте (укажите свой ник в строку Ваше имя)!

×
  
Magnet ссылка

Белая птица в метели / White Bird in a Blizzard (Грегг Араки / Gregg Araki) [2014, Франция, США, триллер, драма, WEB-DLRip, Авторский (одноголосый)[Алексей Матвеев] pb.wtf

Белая птица в метели через торрент pb.wtf

Размер: 1.36 GB | Добавлен: 7 лет 3 мес. назад | Торрент скачан:121 раз
Смотреть онлайн Белая птица в метели | Скачать    Ребята, помогите собрать деньги на оплату серверов!!!

28-09-2014 02:12 Белая птица в метели Скачать торрент  

Белая птица в метели / White Bird in a Blizzard
«Мне было 17, когда мама исчезла...»


  • Год выпуска: 2014
  • Страна: Франция, США
  • Жанр: триллер, драма
  • Продолжительность: 01:31:17
  • Перевод: Авторский (одноголосый)[Алексей Матвеев]

  • Режиссер: Грегг Араки / Gregg Araki
  • В ролях:

    Шейлин Вудли (Kat Connor), Ева Грин (Eve Connor), Кристофер Мелони (Brock Connor), Шайло Фернандес (Phil), Габури Сидибе (Beth), Томас Джейн (Detective Scieziesciez), Анджела Бассетт (Dr. Thaler), Шерил Ли (May), Дейл Дикки (Mrs. Hillman), Марк Инделикато (Mickey), Джейкоб Артист, Бренда Ку (Cindy)

  • Описание:
    Жизнь молодой женщины превращается в хаос, когда исчезает её мать.
  • Рейтинг:



  • Качество: WEB-DLRip
  • Формат: :AVI
  • Видео кодек: XviD
  • Аудио кодек: AC3
  • Видео: 720x304 (2.35:1), 1743 kbps, 23,976 fps, 0,332 bpp
  • Аудио: 5.1 / 48 kHz / 384 kbps / 16 bit
  • Релиз от: GEKADOL

    Код:

    General
    Complete name                            : I:\White.Bird.in.a.Blizzard.2014.A.WEB-DLRip.avi
    Format                                   : AVI
    Format/Info                              : Audio Video Interleave
    File size                                : 1.36 GiB
    Duration                                 : 1h 31mn
    Overall bit rate                         : 2 137 Kbps
    Writing application                      : VirtualDubMod 1.5.10.3 | www.virtualdub-fr.org || (build 2550/release)
    Writing library                          : VirtualDubMod build 2550/release

    Video
    ID                                       : 0
    Format                                   : MPEG-4 Visual
    Format profile                           : Advanced Simple@L5
    Format settings, BVOP                    : 2
    Format settings, QPel                    : No
    Format settings, GMC                     : No warppoints
    Format settings, Matrix                  : Default (H.263)
    Codec ID                                 : XVID
    Codec ID/Hint                            : XviD
    Duration                                 : 1h 31mn
    Bit rate                                 : 1 744 Kbps
    Width                                    : 720 pixels
    Height                                   : 304 pixels
    Display aspect ratio                     : 2.35:1
    Frame rate                               : 23.976 fps
    Color space                              : YUV
    Chroma subsampling                       : 4:2:0
    Bit depth                                : 8 bits
    Scan type                                : Progressive
    Compression mode                         : Lossy
    Bits/(Pixel*Frame)                       : 0.332
    Stream size                              : 1.11 GiB (82%)
    Writing library                          : XviD 64

    Audio
    ID                                       : 1
    Format                                   : AC-3
    Format/Info                              : Audio Coding 3
    Mode extension                           : CM (complete main)
    Codec ID                                 : 2000
    Duration                                 : 1h 31mn
    Bit rate mode                            : Constant
    Bit rate                                 : 384 Kbps
    Channel(s)                               : 6 channels
    Channel positions                        : Front: L C R, Side: L R, LFE
    Sampling rate                            : 48.0 KHz
    Bit depth                                : 16 bits
    Compression mode                         : Lossy
    Stream size                              : 251 MiB (18%)
    Alignment                                : Split accross interleaves
    Interleave, duration                     : 42 ms (1.00 video frame)
    Interleave, preload duration             : 500 ms


    Скриншоты:


    pb.wtf



  • Скачать Белая птица в метели через торрент http://i66.fastpic.ru/big/2014/0928/88/86da12b4e6122c529dbfb4eccba7ee88.jpg Скачать, смотреть онлайн Белая птица в метели бесплантно в хорошем качестве Описание: Жизнь молодой женщины превращается в хаос, когда исчезает её ... 9.4 10 5
    Торрент: Зарегистрирован [2014-09-28 02:12] · скачан: 121 раз
    Статус: √ проверено
    Размер: 1.36 GB
    Как cкачать? Как скачать Белая птица в метели через торрент | UTorrent

    % Раздел Тема Автор DL S | L
    Фильмы с авторской озвучкой [ 3.13 GB ] Белая птица в метели / White Bird in a Blizzard [2014 BDRip 720p А.Матвеев] _denis_100 Скачать
    1 | 0
    Фильмы с авторской озвучкой [ 10.22 GB ] Белая птица в метели / White Bird in a Blizzard [2014 BDRip 1080p Авторский |Матвеев|] кэп Скачать
    1 | 0
    Фильмы с авторской озвучкой [ 2.72 GB ] Белая птица в метели / White Bird in a Blizzard [2014 WEB-DL 720p Авторский Ворон Скачать
    1 | 0

    28-11-2019 20:33  

    Отключить всю рекламу на сайте

      Дорогой пользователь! Огромная просьба, поблагодарите релизера, оцените раздачу и оставьте свои комментарий, если Вы скачали Белая птица в метели через торрент бесплатно!
      Комментировать посты могут только пользователи прошедшие не сложную регистрацию
      Показать сообщения:    

      Белая птица в метели через торрент
      Скачать бесплатно Белая птица в метели
      Белая птица в метели скачать торрент
      Белая птица в метели смотреть онлайн
      Cкачать фильм Белая птица в метели бесплатно
      Белая птица в метели скачать торрент в хорошем качестве
      Белая птица в метели смотреть онлайн бесплатно в хорошем качестве


      Вы не можете начинать темы
      Вы не можете отвечать на сообщения
      Вы не можете редактировать свои сообщения
      Вы не можете удалять свои сообщения
      Вы не можете голосовать в опросах
      Вы не можете прикреплять файлы к сообщениям
      Вы можете скачивать файлы