Ссылка на приватное зеркало нашего сайта всего за 1$. Внимание количество ограничено!!!

2 сезон

iTunes

1 сезон

1

iTunes

iTunes

iTunes

1 сезон

RePack

30

ИГРА 18+

pack

ВАЖНО

!!Акция!!

Alien_RageХит недели

RePack

MK11
pack

Забери бонус

RePack

jed

!!Акция!!

Alien_Rage

RePack

fifa19

RePack

Assassins Creed: Odyssey

RePack

NEED FOR SPEED™ PAYBACK

4 сезон

9 сезон

Бесстыжие 9 сезон

Все сериалы

все сериалы на PB.wtf

RePack

FAR CRY 5
  

Крик совы / Серии: 1-10 из 10 (Олег Погодин) [2013, детектив, криминал, 3xDVD9] R5 pb.wtf

Крик совы через торрент pb.wtf

Размер: 19.66 GB | Добавлен: 6 лет назад | Торрент скачан:87 раз
Скачать  

28-09-2014 08:21 Крик совы Скачать торрент  


Крик совы
Страна: Россия
Студия: Щука
Жанр: детектив, криминал
Год выпуска: 2013
Российская премьера: 5 ноября 2013
Дата выхода DVD: 13 февраля 2014
Продолжительность: 520 мин.
Перевод: Оригинал [Лицензия]
Cубтитры: нет
Оригинальная аудиодорожка: русский
Режиссер: Олег Погодин
В ролях: Серафима Низовская, Андрей Мерзликин, Сергей Пускепалис, Мария Миронова, Анна Уколова, Николай Солодилов, Василий Бочкарев, Олег Алмазов, Андрей Феськов, Евгений Славский
Описание: Действие фильма разворачивается в 1957 году. В центре сюжета — происходящие в маленьком городке загадочные преступления, расследованием которых занимаются милиционер Балахнин и сотрудник КГБ Митин.
Бонусы: Трейлер, Анонсы

Релиз группы:
Качество: 3xDVD9 R5
Формат: DVD-Video
Видео кодек: MPEG2
Аудио кодек: AC3
Видео: PAL 16:9 (720x576(0.504)) MPEG Video, 25,000 кадр/сек, 5230 Кбит/сек
Аудио: Russian (Dolby AC3, 2 ch) 192 Кбит/сек, 48,0 КГц



Title: DVD1
Size: 6.02 Gb ( 6 308 156,00 KBytes ) - DVD-9
Enabled regions: 1, 2, 3, 4, 5, 6, 7, 8

VTS_01 :
Play Length: 00:00:10
Video: PAL 16:9 (720x576) VBR, Auto Letterboxed

VTS_02 :
Play Length: 00:00:07
Video: PAL 16:9 (720x576) VBR, Auto Letterboxed
Audio:
English (Dolby AC3, 6 ch)

VTS_03 :
Play Length: 00:05:24
Video: PAL 16:9 (720x576) VBR, Auto Letterboxed
Audio:
Russian (Dolby AC3, 2 ch)

VTS_04 :
Play Length: 02:35:47+{00:52:06}+{00:51:34}+{00:52:05}
Video: PAL 16:9 (720x576) VBR, Auto Pan&Scan, Auto Letterboxed
Audio:
Russian (Dolby AC3, 2 ch)

* Menus Information *

VIDEO_TS Menu
Video:
PAL 16:9 (720x576) VBR
Auto Pan&Scan, Auto Letterboxed
English Language Unit :
Title Menu

VTS_01 Menu
Video:
PAL 16:9 (720x576) VBR
Auto Letterboxed
Audio:
Not specified (Dolby AC3, 2 ch)
English Language Unit :
Root Menu

VTS_02 Menu
Video:
PAL 4:3 (720x576) VBR
English Language Unit :
Root Menu

VTS_03 Menu
Video:
PAL 4:3 (720x576) VBR
English Language Unit :
Root Menu

VTS_04 Menu
Video:
PAL 4:3 (720x576) VBR
English Language Unit :
Root Menu
Title: DVD2
Size: 5.96 Gb ( 6 252 634,00 KBytes ) - DVD-9
Enabled regions: 1, 2, 3, 4, 5, 6, 7, 8

VTS_01 :
Play Length: 00:00:10
Video: PAL 16:9 (720x576) VBR, Auto Letterboxed

VTS_02 :
Play Length: 00:00:07
Video: PAL 16:9 (720x576) VBR, Auto Letterboxed
Audio:
English (Dolby AC3, 6 ch)

VTS_03 :
Play Length: 00:02:05
Video: PAL 16:9 (720x576) VBR, Auto Letterboxed
Audio:
Russian (Dolby AC3, 6 ch)

VTS_04 :
Play Length: 00:02:17
Video: PAL 16:9 (720x576) VBR, Auto Letterboxed
Audio:
Russian (Dolby AC3, 6 ch)

VTS_05 :
Play Length: 02:35:51+{00:51:52}+{00:52:04}+{00:51:53}
Video: PAL 16:9 (720x576) VBR, Auto Pan&Scan, Auto Letterboxed
Audio:
Russian (Dolby AC3, 2 ch)

* Menus Information *

VIDEO_TS Menu
Video:
PAL 16:9 (720x576) VBR
Auto Pan&Scan, Auto Letterboxed
English Language Unit :
Title Menu

VTS_01 Menu
Video:
PAL 16:9 (720x576) VBR
Auto Letterboxed
Audio:
Not specified (Dolby AC3, 2 ch)
English Language Unit :
Root Menu

VTS_02 Menu
Video:
PAL 4:3 (720x576) VBR
English Language Unit :
Root Menu

VTS_03 Menu
Video:
PAL 4:3 (720x576) VBR
English Language Unit :
Root Menu

VTS_04 Menu
Video:
PAL 4:3 (720x576) VBR
English Language Unit :
Root Menu

VTS_05 Menu
Video:
PAL 4:3 (720x576) VBR
English Language Unit :
Root Menu
Title: DVD3
Size: 7.68 Gb ( 8 056 158,00 KBytes ) - DVD-9
Enabled regions: 1, 2, 3, 4, 5, 6, 7, 8

VTS_01 :
Play Length: 00:00:10
Video: PAL 16:9 (720x576) VBR, Auto Letterboxed

VTS_02 :
Play Length: 00:00:07
Video: PAL 16:9 (720x576) VBR, Auto Letterboxed
Audio:
English (Dolby AC3, 6 ch)

VTS_03 :
Play Length: 03:27:17+{00:51:34}+{00:51:44}+{00:51:39}+{00:52:17}
Video: PAL 16:9 (720x576) VBR, Auto Pan&Scan, Auto Letterboxed
Audio:
Russian (Dolby AC3, 2 ch)

* Menus Information *

VIDEO_TS Menu
Video:
PAL 16:9 (720x576) VBR
Auto Pan&Scan, Auto Letterboxed
English Language Unit :
Title Menu

VTS_01 Menu
Video:
PAL 16:9 (720x576) VBR
Auto Letterboxed
Audio:
Not specified (Dolby AC3, 2 ch)
English Language Unit :
Root Menu

VTS_02 Menu
Video:
PAL 4:3 (720x576) VBR
English Language Unit :
Root Menu

VTS_03 Menu
Video:
PAL 4:3 (720x576) VBR
English Language Unit :
Root Menu
Общее
Полное имя : F:\Новинки 2014\Krik.sovy.2013.3xDVD9\DVD1\VIDEO_TS\VTS_04_1.VOB
Формат : MPEG-PS
Размер файла : 1024 Мбайт
Продолжительность : 25 м.
Режим общего битрейта : Переменный
Общий поток : 5532 Кбит/сек

Видео
Идентификатор : 224 (0xE0)
Формат : MPEG Video
Версия формата : Version 2
Профиль формата : Main@Main
Параметр BVOP формата : Да
Параметр матрицы формата : Выборочная
Параметр GOP формата : Variable
Продолжительность : 25 м.
Вид битрейта : Переменный
Битрейт : 5230 Кбит/сек
Максимальный битрейт : 8500 Кбит/сек
Ширина : 720 пикселей
Высота : 576 пикселей
Соотношение сторон : 16:9
Частота кадров : 25,000 кадров/сек
Стандарт вещания : PAL
Цветовое пространство : YUV
Субдискретизация насыщенности : 4:2:0
Битовая глубина : 8 бит
Тип развёртки : Чересстрочная
Порядок развёртки : Верхнее поле первое
Метод сжатия : С потерями
Бит/(Пиксели*Кадры) : 0.504
Временной код первого кадра : 00:00:00:00
Оригинал временного кода : Group of pictures header
Размер потока : 968 Мбайт (95%)

Аудио
Идентификатор : 189 (0xBD)-128 (0x80)
Формат : AC-3
Формат/Информация : Audio Coding 3
Расширение режима : CM (complete main)
Параметр Endianness формата : Big
Режим смешивания : DVD-Video
Продолжительность : 25 м.
Вид битрейта : Постоянный
Битрейт : 192 Кбит/сек
Каналы : 2 канала
Расположение каналов : Front: L R
Частота : 48,0 КГц
Битовая глубина : 16 бит
Метод сжатия : С потерями
Размер потока : 35,5 Мбайт (3%)










pb.wtf



Скачать Крик совы через торрент http://i66.fastpic.ru/big/2014/0928/39/c570346096c08020b876ba0b716c6439.jpg Скачать фильм Крик совы через торрент бесплантно в хорошем качестве Описание: Действие фильма разворачивается в 1957 году. В центре сюжета — происходящие в маленьком городке загадочные преступления, ... 9.6 10 8
Info! Золотая раздача, скачанное не засчитывается.
Торрент: Зарегистрирован [2014-09-28 08:21] · скачан: 87 раз
Статус: √ проверено
Размер: 19.66 GB
Как cкачать? Как скачать Крик совы через торрент | qTorrent

28-11-2019 20:33  

Отключить всю рекламу на сайте

    Дорогой пользователь! Огромная просьба, поблагодарите релизера, оцените раздачу и оставьте свои комментарий, если Вы скачали Крик совы через торрент бесплатно! Внесите свою лепту в развитие PiratBit!
    Комментировать посты могут только пользователи прошедшие не сложную регистрацию
    Показать сообщения:    

    Крик совы через торрент
    Скачать бесплатно Крик совы
    Крик совы скачать торрент
    Крик совы смотреть онлайн
    Cкачать фильм Крик совы бесплатно
    Крик совы скачать торрент в хорошем качестве
    Крик совы смотреть онлайн бесплатно в хорошем качестве


    Вы не можете начинать темы
    Вы не можете отвечать на сообщения
    Вы не можете редактировать свои сообщения
    Вы не можете удалять свои сообщения
    Вы не можете голосовать в опросах
    Вы не можете прикреплять файлы к сообщениям
    Вы можете скачивать файлы