Всегда рабочее зеркало просто перед .vidak.icu напиши любое слово или цифру, Пример http://doz.vidak.icu

>

7.4

iTunes

7.4

2 сезон

9.4

1 сезон

1

7.4

2 сезон

7.2

iTunes

6.0

MVO

13

6.1

iTunes

8.3

Пиратка

30

ULTIMATE

pack

9.9

Лицензия

ВАЖНО

ИГРА 18+

pack

7.3

RePack

MK11

7.7

RePack

jed

7.8

RePack

fifa19

8.5

RePack

RDR2

RePack

NEED FOR SPEED™ PAYBACK

1 сезон

9 сезон

Бесстыжие 9 сезон

Все сериалы

все сериалы на PB.wtf

RePack

FAR CRY 5

Anonymous, доброй ночи, мы катастрофически не успеваем собрать деньги на оплату серверов, помогите нам пожалуйста 5,10,15р., для нас важна любая помощь . В качестве благодарности мы отключим Вам всю рекламу на сайте (укажите свой ник в строку Ваше имя)!

×
  
Magnet ссылка

Белая птица в метели / White Bird in a Blizzard (Грегг Араки) [2014, триллер, драма, WEB-DL 720p, Авторский (одноголосый)(Алексей Матвеев -Doctor Joker) pb.wtf

Белая птица в метели через торрент pb.wtf

Размер: 2.72 GB | Добавлен: 7 лет 3 мес. назад | Торрент скачан:78 раз
Смотреть онлайн Белая птица в метели | Скачать    Ребята, помогите собрать деньги на оплату серверов!!!

28-09-2014 08:58 Белая птица в метели Скачать торрент  

Белая птица в метели / White Bird in a Blizzard
«I was 17 when my mother disappeared...»

Год выпуска: 2014
Страна: Франция, США
Жанр:триллер, драма
Продолжительность:01:31:17
Перевод:Авторский (одноголосый)(Алексей Матвеев -Doctor Joker)
Режиссер:Грегг Араки

  • В ролях:

    Шейлин Вудли (Kat Connor), Ева Грин (Eve Connor), Кристофер Мелони (Brock Connor), Шайло Фернандес (Phil), Габури Сидибе (Beth), Томас Джейн (Detective Scieziesciez), Анджела Бассетт (Dr. Thaler), Шерил Ли (May), Дейл Дикки (Mrs. Hillman), Марк Инделикато (Mickey), Джейкоб Артист, Бренда Ку (Cindy)

  • Описание:
    Жизнь молодой женщины превращается в хаос, когда исчезает её мать.

  • Мировая премьера:20 января 2014

    Качество: WEB-DL 720p
    Формат:MKV
    Видео кодек: AVC
    Аудио кодек:AC3
    Видео: AVC, 1280x538 (2.40:1), 3894 kbps, 23,976 fps, 0,236 bpp
    Аудио: русский / AC3 / 5.1 / 48 kHz / 384 kbps / 16 bit ||


    Код:

    General
    Unique ID                                : 176187178879307812815025066400006872304 (0x848C6A96B47FB25596E23D9942111CF0)
    Complete name                            : D:\Торенты\White.Bird.in.a.Blizzard.2014.WEB-DL.720p.Doctor.Joker.mkv
    Format                                   : Matroska
    Format version                           : Version 4 / Version 2
    File size                                : 2.72 GiB
    Duration                                 : 1h 31mn
    Overall bit rate                         : 4 265 Kbps
    Encoded date                             : UTC 2014-09-27 21:57:11
    Writing application                      : mkvmerge v6.1.0 ('Old Devil') built on Mar  4 2013 09:10:42
    Writing library                          : libebml v1.3.0 + libmatroska v1.4.0

    Video
    ID                                       : 1
    Format                                   : AVC
    Format/Info                              : Advanced Video Codec
    Format profile                           : High@L4.1
    Format settings, CABAC                   : Yes
    Format settings, ReFrames                : 4 frames
    Codec ID                                 : V_MPEG4/ISO/AVC
    Duration                                 : 1h 31mn
    Bit rate                                 : 3 894 Kbps
    Width                                    : 1 280 pixels
    Height                                   : 538 pixels
    Display aspect ratio                     : 2.40:1
    Frame rate mode                          : Variable
    Frame rate                               : 23.976 fps
    Color space                              : YUV
    Chroma subsampling                       : 4:2:0
    Bit depth                                : 8 bits
    Scan type                                : Progressive
    Bits/(Pixel*Frame)                       : 0.236
    Stream size                              : 2.42 GiB (89%)
    Writing library                          : x264 core 130 r2273 b3065e6
    Encoding settings                        : cabac=1 / ref=1 / deblock=1:0:0 / analyse=0x3:0x113 / me=hex / subme=2 / psy=1 / psy_rd=1.00:0.00 / mixed_ref=0 / me_range=16 / chroma_me=1 / trellis=0 / 8x8dct=1 / cqm=0 / deadzone=21,11 / fast_pskip=1 / chroma_qp_offset=0 / threads=48 / lookahead_threads=4 / sliced_threads=0 / nr=0 / decimate=1 / interlaced=0 / bluray_compat=0 / constrained_intra=0 / bframes=3 / b_pyramid=2 / b_adapt=1 / b_bias=0 / direct=1 / weightb=1 / open_gop=0 / weightp=1 / keyint=240 / keyint_min=24 / scenecut=40 / intra_refresh=0 / rc_lookahead=10 / rc=abr / mbtree=1 / bitrate=3894 / ratetol=1.0 / qcomp=0.60 / qpmin=0 / qpmax=69 / qpstep=4 / vbv_maxrate=62500 / vbv_bufsize=78125 / nal_hrd=none / ip_ratio=1.40 / aq=1:1.00
    Language                                 : English
    Default                                  : Yes
    Forced                                   : No
    Color primaries                          : BT.709-5, BT.1361, IEC 61966-2-4, SMPTE RP177
    Transfer characteristics                 : BT.709-5, BT.1361
    Matrix coefficients                      : BT.709-5, BT.1361, IEC 61966-2-4 709, SMPTE RP177

    Audio
    ID                                       : 2
    Format                                   : AC-3
    Format/Info                              : Audio Coding 3
    Mode extension                           : CM (complete main)
    Codec ID                                 : A_AC3
    Duration                                 : 1h 31mn
    Bit rate mode                            : Constant
    Bit rate                                 : 384 Kbps
    Channel(s)                               : 6 channels
    Channel positions                        : Front: L C R, Side: L R, LFE
    Sampling rate                            : 48.0 KHz
    Bit depth                                : 16 bits
    Compression mode                         : Lossy
    Stream size                              : 251 MiB (9%)
    Title                                    : AVO Doctor Joker
    Language                                 : Russian
    Default                                  : Yes
    Forced                                   : No

    Скриншоты:



    © Оформление by Ravenpb.wtf



  • Скачать Белая птица в метели через торрент https://pic1.kartinco.top/images/61/stazu.jpg Скачать, смотреть онлайн Белая птица в метели бесплантно в хорошем качестве Описание:Жизнь молодой женщины превращается в хаос, когда исчезает её мать.Мировая премьера:20 января 2014 ✦ ... 10 10 2
    Торрент: Зарегистрирован [2014-09-28 08:58] · скачан: 78 раз
    Статус: √ проверено
    Размер: 2.72 GB
    Как cкачать? Как скачать Белая птица в метели через торрент | UTorrent

    % Раздел Тема Автор DL S | L
    Фильмы с авторской озвучкой [ 3.13 GB ] Белая птица в метели / White Bird in a Blizzard [2014 BDRip 720p А.Матвеев] _denis_100 Скачать
    1 | 0
    Фильмы с авторской озвучкой [ 10.22 GB ] Белая птица в метели / White Bird in a Blizzard [2014 BDRip 1080p Авторский |Матвеев|] кэп Скачать
    1 | 0
    Фильмы с авторской озвучкой [ 1.36 GB ] Белая птица в метели / White Bird in a Blizzard [2014 WEB-DLRip Авторский [Алексей Матвеев] GEKADOL Скачать
    1 | 0

    28-11-2019 20:33  

    Отключить всю рекламу на сайте

    28-09-2014 08:59 Белая птица в метели Скачать торрент  

    Ева Грин- тема сисек разрыта sarcasticpb.wtf



      Дорогой пользователь! Огромная просьба, поблагодарите релизера, оцените раздачу и оставьте свои комментарий, если Вы скачали Белая птица в метели через торрент бесплатно!
      Комментировать посты могут только пользователи прошедшие не сложную регистрацию
      Показать сообщения:    

      Белая птица в метели через торрент
      Скачать бесплатно Белая птица в метели
      Белая птица в метели скачать торрент
      Белая птица в метели смотреть онлайн
      Cкачать фильм Белая птица в метели бесплатно
      Белая птица в метели скачать торрент в хорошем качестве
      Белая птица в метели смотреть онлайн бесплатно в хорошем качестве


      Вы не можете начинать темы
      Вы не можете отвечать на сообщения
      Вы не можете редактировать свои сообщения
      Вы не можете удалять свои сообщения
      Вы не можете голосовать в опросах
      Вы не можете прикреплять файлы к сообщениям
      Вы можете скачивать файлы