1 сезон

1 сезон

iTunes

1

КиноПоиск HD

Кинопоиск HD

iTunes

13

1 сезон

RePack

30

Ultimate

ВАЖНО

ИГРА 18+

pack

RePack

MK11
pack

Легкие деньги

RePack

jed

RePack

fifa19

RePack

RDR2

RePack

NEED FOR SPEED™ PAYBACK

4 сезон

9 сезон

Бесстыжие 9 сезон

Все сериалы

все сериалы на PB.wtf

RePack

FAR CRY 5
  
Magnet ссылка

Призрак Красной реки / An American Haunting (Кортни Соломон) [2005г., Ужасы, триллер, детектив, экранизация, BDRip] DUB, MVO, AVO pb.wtf

Призрак Красной реки через торрент pb.wtf

Размер: 2.05 GB | Добавлен: 6 лет 6 мес. назад | Торрент скачан:124 раза
Скачать  

28-09-2014 11:54 Призрак Красной реки Скачать торрент  

Призрак Красной реки / An American Haunting
Год выпуска: 2005
Страна: США, Великобритания, Канада, Румыния
Жанр: Ужасы, триллер, детектив, экранизация
Продолжительность: 01:30:14
Перевод: дублированный, профессиональный многоголосый, авторский
Субтитры: русские, английские (все отдельно)

Режиссёр: Кортни Соломон

В ролях: Дональд Сазерленд, Сисси Спейсек, Рэйчел Херд-Вуд, Джеймс Д`Арси, Мэттью Марш, Том Фелл, Сэм Александер, Зои Торн, Мигель Браун, Шона Шим, Лайла Бата-Уолш

Описание: «Призрак Красной реки» — история, основанная на реальных событиях, происходивших в США (штат Теннеси) в 19 веке. Об истории семьи Беллов, подвергшейся нападениям таинственного духа, написано 35 книг. Все они рассказывают о том, как на добропорядочную и уважаемую семью Беллов обрушилось проклятье. С какого-то момента в их дом стал приходить призрак, который добивался смерти одного из членов семьи. Экранизация произведения Брента Монахэна.



Качество: BDRip Сравнение с исходником
Формат: AVI
Видео кодек: XviD
Аудио кодек: AC3
Видео: 720х288, 1506 kbps, 23.976 кадра/с, 0.303 bpp
Аудио 1: русский, AC3, 448 kbps, 6 ch, 48 kHz [дублированный]
Аудио 2: русский, AC3, 448 kbps, 6 ch, 48 kHz [профессиональный многоголосый]
Аудио 3: русский, AC3, 192 kbps, 2 ch, 48 kHz [авторский, Евгений Гранкин]
Аудио 4: русский, AC3, 192 kbps, 2 ch, 48 kHz [авторский, Антон Карповский]

Отдельный файл
Аудио: английский, AC3, 448 kbps, 6 ch, 48 kHz [оригинал]

Автор рипа msltel
Общее
Полное имя : D:VideoPrizrak Krasnoj reki.2005.BDRipPrizrak Krasnoj reki.2005.BDRip.avi
Формат : AVI
Формат/Информация : Audio Video Interleave
Размер файла : 1,77 Гбайт
Продолжительность : 1 ч. 30 м.
Общий поток : 2810 Кбит/сек
Программа кодирования : VirtualDubMod 1.5.10.2 (build 2540/release)
Библиотека кодирования : VirtualDubMod build 2540/release

Видео
Идентификатор : 0
Формат : MPEG-4 Visual
Профиль формата : Advanced Simple@L5
Параметр BVOP формата : 1
Параметр QPel формата : Нет
Параметр GMC формата : Без точки перехода
Параметр матрицы формата : Default (H.263)
Режим смешивания : Сжатый битовый поток
Идентификатор кодека : XVID
Идентификатор кодека/Подсказка : XviD
Продолжительность : 1 ч. 30 м.
Битрейт : 1506 Кбит/сек
Ширина : 720 пикселей
Высота : 288 пикселей
Соотношение сторон : 2,500
Частота кадров : 23,976 кадра/сек
Цветовое пространство : YUV
Субдискретизация насыщенности : 4:2:0
Битовая глубина : 8 бит
Тип развёртки : Прогрессивная
Метод сжатия : С потерями
Бит/(Пиксели*Кадры) : 0.303
Размер потока : 972 Мбайт (54%)
Библиотека кодирования : XviD 1.2.1 (UTC 2008-12-04)

Аудио #1
Идентификатор : 1
Формат : AC-3
Формат/Информация : Audio Coding 3
Расширение режима : CM (complete main)
Параметр Endianness формата : Big
Идентификатор кодека : 2000
Продолжительность : 1 ч. 30 м.
Вид битрейта : Постоянный
Битрейт : 448 Кбит/сек
Каналы : 6 каналов
Расположение каналов : Front: L C R, Side: L R, LFE
Частота : 48,0 КГц
Битовая глубина : 16 бит
Метод сжатия : С потерями
Размер потока : 289 Мбайт (16%)
Выравнивание : Разделение по промежуткам
Продолжительность промежутка : 42 мс. (1,00 видеокадр)
Время предзагрузки промежутка : 500 мс.

Аудио #2
Идентификатор : 2
Формат : AC-3
Формат/Информация : Audio Coding 3
Расширение режима : CM (complete main)
Параметр Endianness формата : Big
Идентификатор кодека : 2000
Продолжительность : 1 ч. 30 м.
Вид битрейта : Постоянный
Битрейт : 448 Кбит/сек
Каналы : 6 каналов
Расположение каналов : Front: L C R, Side: L R, LFE
Частота : 48,0 КГц
Битовая глубина : 16 бит
Метод сжатия : С потерями
Размер потока : 289 Мбайт (16%)
Выравнивание : Разделение по промежуткам
Продолжительность промежутка : 42 мс. (1,00 видеокадр)
Время предзагрузки промежутка : 500 мс.

Аудио #3
Идентификатор : 3
Формат : AC-3
Формат/Информация : Audio Coding 3
Расширение режима : CM (complete main)
Параметр Endianness формата : Big
Идентификатор кодека : 2000
Продолжительность : 1 ч. 30 м.
Вид битрейта : Постоянный
Битрейт : 192 Кбит/сек
Каналы : 2 канала
Расположение каналов : Front: L R
Частота : 48,0 КГц
Битовая глубина : 16 бит
Метод сжатия : С потерями
Размер потока : 124 Мбайт (7%)
Выравнивание : Разделение по промежуткам
Продолжительность промежутка : 42 мс. (1,00 видеокадр)
Время предзагрузки промежутка : 500 мс.

Аудио #4
Идентификатор : 4
Формат : AC-3
Формат/Информация : Audio Coding 3
Расширение режима : CM (complete main)
Параметр Endianness формата : Big
Идентификатор кодека : 2000
Продолжительность : 1 ч. 30 м.
Вид битрейта : Постоянный
Битрейт : 192 Кбит/сек
Каналы : 2 канала
Расположение каналов : Front: L R
Частота : 48,0 КГц
Битовая глубина : 16 бит
Метод сжатия : С потерями
Размер потока : 124 Мбайт (7%)
Выравнивание : Разделение по промежуткам
Продолжительность промежутка : 42 мс. (1,00 видеокадр)
Время предзагрузки промежутка : 500 мс.

Общее
Полное имя : D:VideoPrizrak Krasnoj reki.2005.BDRipPrizrak Krasnoj reki.2005.eng.srt
Размер файла : 96,9 Кбайт

Общее
Полное имя : D:VideoPrizrak Krasnoj reki.2005.BDRipPrizrak Krasnoj reki.2005.Original.eng.ac3
Формат : AC-3
Формат/Информация : Audio Coding 3
Размер файла : 289 Мбайт
Продолжительность : 1 ч. 30 м.
Режим общего битрейта : Постоянный
Общий поток : 448 Кбит/сек

Аудио
Формат : AC-3
Формат/Информация : Audio Coding 3
Расширение режима : CM (complete main)
Параметр Endianness формата : Big
Продолжительность : 1 ч. 30 м.
Вид битрейта : Постоянный
Битрейт : 448 Кбит/сек
Каналы : 6 каналов
Расположение каналов : Front: L C R, Side: L R, LFE
Частота : 48,0 КГц
Битовая глубина : 16 бит
Метод сжатия : С потерями
Размер потока : 289 Мбайт (100%)

Общее
Полное имя : D:VideoPrizrak Krasnoj reki.2005.BDRipPrizrak Krasnoj reki.2005.rus.srt
Размер файла : 81,4 Кбайт
pb.wtf



Скачать Призрак Красной реки через торрент http://i63.fastpic.ru/big/2014/0928/9d/81e6356605edfdc351dd61707634fa9d.jpg Скачать фильм Призрак Красной реки через торрент бесплантно в хорошем качестве Описание: «Призрак Красной реки» — история, основанная на реальных событиях, происходивших в США (штат Теннеси) в 19 веке. Об истории семьи ... 9.6 10 8
Торрент: Зарегистрирован [2014-09-28 11:54] · скачан: 124 раз
Статус: √ проверено
Размер: 2.05 GB
Как cкачать? Как скачать Призрак Красной реки через торрент | UTorrent

% Раздел Тема Автор DL S | L
Фильмы [HD 720p, 1080p] (Хороший звук DUB, MVO) [ 10.81 GB ] Призрак Красной реки / An American Haunting [2005 экранизация BDRip 1080p] DUB MVO AVO msltel Скачать
1 | 0
Фильмы [HD 720p, 1080p] (Хороший звук DUB, MVO) [ 5.36 GB ] Призрак Красной реки / An American Haunting [2005 экранизация BDRip 720p] DUB MVO AVO msltel Скачать
1 | 0

28-11-2019 20:33  

Отключить всю рекламу на сайте


    Дорогой пользователь! Огромная просьба, поблагодарите релизера, оцените раздачу и оставьте свои комментарий, если Вы скачали Призрак Красной реки через торрент бесплатно! Внесите свою лепту в развитие PiratBit!
    Комментировать посты могут только пользователи прошедшие не сложную регистрацию
    Показать сообщения:    

    Призрак Красной реки через торрент
    Скачать бесплатно Призрак Красной реки
    Призрак Красной реки скачать торрент
    Призрак Красной реки смотреть онлайн
    Cкачать фильм Призрак Красной реки бесплатно
    Призрак Красной реки скачать торрент в хорошем качестве
    Призрак Красной реки смотреть онлайн бесплатно в хорошем качестве


    Вы не можете начинать темы
    Вы не можете отвечать на сообщения
    Вы не можете редактировать свои сообщения
    Вы не можете удалять свои сообщения
    Вы не можете голосовать в опросах
    Вы не можете прикреплять файлы к сообщениям
    Вы можете скачивать файлы