Ссылка на приватное зеркало нашего сайта всего за 1$. Внимание количество ограничено!!!

2 сезон

iTunes

1 сезон

1

iTunes

iTunes

iTunes

1 сезон

RePack

30

ИГРА 18+

pack

ВАЖНО

!!Акция!!

Alien_RageХит недели

RePack

MK11
pack

Забери бонус

RePack

jed

!!Акция!!

Alien_Rage

RePack

fifa19

RePack

Assassins Creed: Odyssey

RePack

NEED FOR SPEED™ PAYBACK

4 сезон

9 сезон

Бесстыжие 9 сезон

Все сериалы

все сериалы на PB.wtf

RePack

FAR CRY 5
  

Коммандос / Commando (Марк Л. Лестер) [1985г., Боевик, триллер, BDRip 1080p] MVO, DVO, AVO pb.wtf

Коммандос через торрент pb.wtf

Размер: 15.72 GB | Добавлен: 6 лет назад | Торрент скачан:46 раз
Скачать  

28-09-2014 15:01 Коммандос Скачать торрент  

Коммандос / Commando
Год выпуска: 1985
Страна: США
Жанр: Боевик, триллер
Продолжительность: 01:30:16
Перевод: профессиональный многоголосый, профессиональный двухголосый, авторский
Субтитры: русские (R5), русские (Гоблин), английские (для слабослышащих) (все отдельно)

Режиссёр: Марк Л. Лестер

В ролях: Арнольд Шварценеггер, Рей Дон Чон, Дэн Хедайя, Вернон Уэллс, Джеймс Олсон, Дэвид Патрик Келли, Алисса Милано, Билл Дьюк, Дрю Снайдер, Шарон Уайатт, Майкл Делано, Боб Майнор, Майкл Адамс, Гэри Сервантес, Ленни Джулиано, Чарльз Мешак, Челси Филд, Джули Хайек, Хэнк Калиа, Уолтер Скотт, Грег Уэйн Элам, Джордж Фишер, Фил Эдамс, Ава Каделл, Микул Робинс, Брэнском Ричмонд, Мэтт Лэндерс, Питер, Том Симмонс, Билл Пэкстон, Ричард Ройс, Джон Рейс, Билли Карденас, Эдвард Рейс, Вивиан Дэйли, Томас Розалес мл.

Описание: Бывший командир спецотряда, участвовавшего в секретных операциях на Ближнем Востоке, СССР и Центральной Америке, полковник в отставке Джон Матрикс, под другим именем, живёт в большом доме, вдали от города, вместе со своей одиннадцатилетней дочерью Дженни, пока её не похищает бывший товарищ Джона…



Качество: BDRip 1080p Сравнение с исходником
Формат: MKV
Видео кодек: H.264
Аудио кодек: AC3,DTS
Видео: 1920x1040, 13.7 Мbps, 23.976 кадра/с, 0.287 bpp
Аудио 1: русский, 48 kHz, DTS, 6 ch, 1509 kbps avg, [Профессиональный многоголосый, Киномания]
Аудио 2: русский, 48 kHz, DTS, 6 ch, 1509 kbps avg, [Профессиональный двухголосый, Пётр Гланц и Инна Королёва]
Аудио 3: русский, 48 kHz, DTS, 6 ch, 1509 kbps avg, [Авторский, Дмитрий Пучков (Гоблин)]
Аудио 4: русский, 48 kHz, DTS, 6 ch, 1509 kbps avg, [Авторский, Андрей Гаврилов]

Внешние файлы
Аудио: русский, 48 kHz, AC3, 6 ch, 448 kbps avg, [Профессиональный многоголосый, OPT]
Аудио: русский, 48 kHz, AC3, 2 ch, 192 kbps avg, [Профессиональный многоголосый, R5]
Аудио: русский, 48 kHz, AC3, 6 ch, 448 kbps avg, [Профессиональный многоголосый, Киномания]
Аудио: русский, 48 kHz, AC3, 6 ch, 448 kbps avg, [Профессиональный двухголосый, Пётр Гланц и Инна Королёва]
Аудио: русский, 48 kHz, AC3, 6 ch, 448 kbps avg, [Авторский, Дмитрий Пучков (Гоблин)]
Аудио: русский, 48 kHz, AC3, 6 ch, 448 kbps avg, [Авторский, Андрей Гаврилов]
Аудио: русский, 48 kHz, AC3, 6 ch, 448 kbps avg, [Авторский, Борис Фёдоров]
Аудио: русский, 48 kHz, AC3, 2 ch, 192 kbps avg, [Авторский, Василий Горчаков]
Аудио: русский, 48 kHz, AC3, 2 ch, 192 kbps avg, [Авторский, Юрий Толбин]
Аудио: английский, 48 kHz, DTS, 6 ch, 1509 kbps avg, [Оригинал]

Автор рипа msltel
Общее
Полное имя : D:VideoCommando.1985.BDRip.1080pCommando.1985.AVO.rus.А.Гаврилов.ac3
Формат : AC-3
Формат/Информация : Audio Coding 3
Размер файла : 289 Мбайт
Продолжительность : 1 ч. 30 м.
Режим общего битрейта : Постоянный
Общий поток : 448 Кбит/сек

Аудио
Формат : AC-3
Формат/Информация : Audio Coding 3
Расширение режима : CM (complete main)
Параметр Endianness формата : Big
Продолжительность : 1 ч. 30 м.
Вид битрейта : Постоянный
Битрейт : 448 Кбит/сек
Каналы : 6 каналов
Расположение каналов : Front: L C R, Side: L R, LFE
Частота : 48,0 КГц
Битовая глубина : 16 бит
Метод сжатия : С потерями
Размер потока : 289 Мбайт (100%)

Общее
Полное имя : D:VideoCommando.1985.BDRip.1080pCommando.1985.AVO.rus.Б.Фёдоров.ac3
Формат : AC-3
Формат/Информация : Audio Coding 3
Размер файла : 289 Мбайт
Продолжительность : 1 ч. 30 м.
Режим общего битрейта : Постоянный
Общий поток : 448 Кбит/сек

Аудио
Формат : AC-3
Формат/Информация : Audio Coding 3
Расширение режима : CM (complete main)
Параметр Endianness формата : Big
Продолжительность : 1 ч. 30 м.
Вид битрейта : Постоянный
Битрейт : 448 Кбит/сек
Каналы : 6 каналов
Расположение каналов : Front: L C R, Side: L R, LFE
Частота : 48,0 КГц
Битовая глубина : 16 бит
Метод сжатия : С потерями
Размер потока : 289 Мбайт (100%)

Общее
Полное имя : D:VideoCommando.1985.BDRip.1080pCommando.1985.AVO.rus.В.Горчаков.ac3
Формат : AC-3
Формат/Информация : Audio Coding 3
Размер файла : 124 Мбайт
Продолжительность : 1 ч. 30 м.
Режим общего битрейта : Постоянный
Общий поток : 192 Кбит/сек

Аудио
Формат : AC-3
Формат/Информация : Audio Coding 3
Расширение режима : CM (complete main)
Параметр Endianness формата : Big
Продолжительность : 1 ч. 30 м.
Вид битрейта : Постоянный
Битрейт : 192 Кбит/сек
Каналы : 2 канала
Расположение каналов : Front: L R
Частота : 48,0 КГц
Битовая глубина : 16 бит
Метод сжатия : С потерями
Размер потока : 124 Мбайт (100%)

Общее
Полное имя : D:VideoCommando.1985.BDRip.1080pCommando.1985.AVO.rus.Гоблин.ac3
Формат : AC-3
Формат/Информация : Audio Coding 3
Размер файла : 289 Мбайт
Продолжительность : 1 ч. 30 м.
Режим общего битрейта : Постоянный
Общий поток : 448 Кбит/сек

Аудио
Формат : AC-3
Формат/Информация : Audio Coding 3
Расширение режима : CM (complete main)
Параметр Endianness формата : Big
Продолжительность : 1 ч. 30 м.
Вид битрейта : Постоянный
Битрейт : 448 Кбит/сек
Каналы : 6 каналов
Расположение каналов : Front: L C R, Side: L R, LFE
Частота : 48,0 КГц
Битовая глубина : 16 бит
Метод сжатия : С потерями
Размер потока : 289 Мбайт (100%)

Общее
Полное имя : D:VideoCommando.1985.BDRip.1080pCommando.1985.AVO.rus.Ю.Толбин.ac3
Формат : AC-3
Формат/Информация : Audio Coding 3
Размер файла : 124 Мбайт
Продолжительность : 1 ч. 30 м.
Режим общего битрейта : Постоянный
Общий поток : 192 Кбит/сек

Аудио
Формат : AC-3
Формат/Информация : Audio Coding 3
Расширение режима : CM (complete main)
Параметр Endianness формата : Big
Продолжительность : 1 ч. 30 м.
Вид битрейта : Постоянный
Битрейт : 192 Кбит/сек
Каналы : 2 канала
Расположение каналов : Front: L R
Частота : 48,0 КГц
Битовая глубина : 16 бит
Метод сжатия : С потерями
Размер потока : 124 Мбайт (100%)

Общее
Уникальный идентификатор : 190302787204723342464981568814663251278 (0x8F2AFBCFAFB78819933C560F0A9AB54E)
Полное имя : D:VideoCommando.1985.BDRip.1080pCommando.1985.BDRip.1080p.mkv
Формат : Matroska
Версия формата : Version 4 / Version 2
Размер файла : 12,7 Гбайт
Продолжительность : 1 ч. 30 м.
Общий поток : 20,2 Мбит/сек
Дата кодирования : UTC 2014-09-07 07:36:56
Программа кодирования : mkvmerge v6.9.1 ('Blue Panther') 64bit built on Apr 18 2014 18:23:38
Библиотека кодирования : libebml v1.3.0 + libmatroska v1.4.1

Видео
Идентификатор : 1
Формат : AVC
Формат/Информация : Advanced Video Codec
Профиль формата : High@L4.1
Параметр CABAC формата : Да
Параметр ReFrames формата : 4 кадра
Идентификатор кодека : V_MPEG4/ISO/AVC
Продолжительность : 1 ч. 30 м.
Битрейт : 13,7 Мбит/сек
Ширина : 1920 пикселей
Высота : 1040 пикселей
Соотношение сторон : 1,85:1
Режим частоты кадров : Постоянный
Частота кадров : 23,976 кадра/сек
Цветовое пространство : YUV
Субдискретизация насыщенности : 4:2:0
Битовая глубина : 8 бит
Тип развёртки : Прогрессивная
Бит/(Пиксели*Кадры) : 0.287
Размер потока : 8,65 Гбайт (68%)
Заголовок : BDRip -- STarankov
Библиотека кодирования : x264 core 142 r2431 ac76440
Настройки программы : cabac=1 / ref=4 / deblock=1:-1:-1 / analyse=0x3:0x113 / me=umh / subme=10 / psy=1 / psy_rd=1.00:0.15 / mixed_ref=1 / me_range=32 / chroma_me=1 / trellis=2 / 8x8dct=1 / cqm=0 / deadzone=21,11 / fast_pskip=0 / chroma_qp_offset=-3 / threads=6 / lookahead_threads=1 / sliced_threads=0 / nr=0 / decimate=1 / interlaced=0 / bluray_compat=0 / constrained_intra=0 / bframes=8 / b_pyramid=2 / b_adapt=2 / b_bias=0 / direct=1 / weightb=1 / open_gop=0 / weightp=2 / keyint=230 / keyint_min=23 / scenecut=40 / intra_refresh=0 / rc_lookahead=40 / rc=crf / mbtree=0 / crf=20.0 / qcomp=0.60 / qpmin=0 / qpmax=69 / qpstep=4 / vbv_maxrate=40000 / vbv_bufsize=50000 / crf_max=0.0 / nal_hrd=none / filler=0 / ip_ratio=1.40 / pb_ratio=1.30 / aq=1:1.00
Язык : English
Default : Да
Forced : Нет

Аудио #1
Идентификатор : 2
Формат : DTS
Формат/Информация : Digital Theater Systems
Режим : 16
Параметр Endianness формата : Big
Идентификатор кодека : A_DTS
Продолжительность : 1 ч. 30 м.
Вид битрейта : Постоянный
Битрейт : 1509 Кбит/сек
Каналы : 6 каналов
Расположение каналов : Front: L C R, Side: L R, LFE
Частота : 48,0 КГц
Битовая глубина : 24 бит
Метод сжатия : С потерями
Размер потока : 974 Мбайт (7%)
Заголовок : MVO (Киномания)
Язык : Russian
Default : Да
Forced : Нет

Аудио #2
Идентификатор : 3
Формат : DTS
Формат/Информация : Digital Theater Systems
Режим : 16
Параметр Endianness формата : Big
Идентификатор кодека : A_DTS
Продолжительность : 1 ч. 30 м.
Вид битрейта : Постоянный
Битрейт : 1509 Кбит/сек
Каналы : 6 каналов
Расположение каналов : Front: L C R, Side: L R, LFE
Частота : 48,0 КГц
Битовая глубина : 24 бит
Метод сжатия : С потерями
Размер потока : 974 Мбайт (7%)
Заголовок : DVO (Пётр Гланц и Инна Королёва)
Язык : Russian
Default : Нет
Forced : Нет

Аудио #3
Идентификатор : 4
Формат : DTS
Формат/Информация : Digital Theater Systems
Режим : 16
Параметр Endianness формата : Big
Идентификатор кодека : A_DTS
Продолжительность : 1 ч. 30 м.
Вид битрейта : Постоянный
Битрейт : 1509 Кбит/сек
Каналы : 6 каналов
Расположение каналов : Front: L C R, Side: L R, LFE
Частота : 48,0 КГц
Битовая глубина : 24 бит
Метод сжатия : С потерями
Размер потока : 974 Мбайт (7%)
Заголовок : AVO (Дмитрий Пучков (Гоблин))
Язык : Russian
Default : Нет
Forced : Нет

Аудио #4
Идентификатор : 5
Формат : DTS
Формат/Информация : Digital Theater Systems
Режим : 16
Параметр Endianness формата : Big
Идентификатор кодека : A_DTS
Продолжительность : 1 ч. 30 м.
Вид битрейта : Постоянный
Битрейт : 1509 Кбит/сек
Каналы : 6 каналов
Расположение каналов : Front: L C R, Side: L R, LFE
Частота : 48,0 КГц
Битовая глубина : 24 бит
Метод сжатия : С потерями
Размер потока : 974 Мбайт (7%)
Заголовок : AVO (Андрей Гаврилов)
Язык : Russian
Default : Нет
Forced : Нет

Общее
Полное имя : D:VideoCommando.1985.BDRip.1080pCommando.1985.DVO.rus.Гланц.ac3
Формат : AC-3
Формат/Информация : Audio Coding 3
Размер файла : 289 Мбайт
Продолжительность : 1 ч. 30 м.
Режим общего битрейта : Постоянный
Общий поток : 448 Кбит/сек

Аудио
Формат : AC-3
Формат/Информация : Audio Coding 3
Расширение режима : CM (complete main)
Параметр Endianness формата : Big
Продолжительность : 1 ч. 30 м.
Вид битрейта : Постоянный
Битрейт : 448 Кбит/сек
Каналы : 6 каналов
Расположение каналов : Front: L C R, Side: L R, LFE
Частота : 48,0 КГц
Битовая глубина : 16 бит
Метод сжатия : С потерями
Размер потока : 289 Мбайт (100%)

Общее
Полное имя : D:VideoCommando.1985.BDRip.1080pCommando.1985.eng.SDH.srt
Размер файла : 90,7 Кбайт

Общее
Полное имя : D:VideoCommando.1985.BDRip.1080pCommando.1985.MVO.rus.OPT.ac3
Формат : AC-3
Формат/Информация : Audio Coding 3
Размер файла : 289 Мбайт
Продолжительность : 1 ч. 30 м.
Режим общего битрейта : Постоянный
Общий поток : 448 Кбит/сек

Аудио
Формат : AC-3
Формат/Информация : Audio Coding 3
Расширение режима : CM (complete main)
Параметр Endianness формата : Big
Продолжительность : 1 ч. 30 м.
Вид битрейта : Постоянный
Битрейт : 448 Кбит/сек
Каналы : 6 каналов
Расположение каналов : Front: L C R, Side: L R, LFE
Частота : 48,0 КГц
Битовая глубина : 16 бит
Метод сжатия : С потерями
Размер потока : 289 Мбайт (100%)

Общее
Полное имя : D:VideoCommando.1985.BDRip.1080pCommando.1985.MVO.rus.R5.ac3
Формат : AC-3
Формат/Информация : Audio Coding 3
Размер файла : 124 Мбайт
Продолжительность : 1 ч. 30 м.
Режим общего битрейта : Постоянный
Общий поток : 192 Кбит/сек

Аудио
Формат : AC-3
Формат/Информация : Audio Coding 3
Расширение режима : CM (complete main)
Параметр Endianness формата : Big
Продолжительность : 1 ч. 30 м.
Вид битрейта : Постоянный
Битрейт : 192 Кбит/сек
Каналы : 2 канала
Расположение каналов : Front: L R
Частота : 48,0 КГц
Битовая глубина : 16 бит
Метод сжатия : С потерями
Размер потока : 124 Мбайт (100%)

Общее
Полное имя : D:VideoCommando.1985.BDRip.1080pCommando.1985.MVO.rus.Киномания.ac3
Формат : AC-3
Формат/Информация : Audio Coding 3
Размер файла : 289 Мбайт
Продолжительность : 1 ч. 30 м.
Режим общего битрейта : Постоянный
Общий поток : 448 Кбит/сек

Аудио
Формат : AC-3
Формат/Информация : Audio Coding 3
Расширение режима : CM (complete main)
Параметр Endianness формата : Big
Продолжительность : 1 ч. 30 м.
Вид битрейта : Постоянный
Битрейт : 448 Кбит/сек
Каналы : 6 каналов
Расположение каналов : Front: L C R, Side: L R, LFE
Частота : 48,0 КГц
Битовая глубина : 16 бит
Метод сжатия : С потерями
Размер потока : 289 Мбайт (100%)

Общее
Полное имя : D:VideoCommando.1985.BDRip.1080pCommando.1985.Original.eng.dts
Формат : DTS
Формат/Информация : Digital Theater Systems
Размер файла : 974 Мбайт
Продолжительность : 1 ч. 30 м.
Режим общего битрейта : Постоянный
Общий поток : 1509 Кбит/сек

Аудио
Формат : DTS
Формат/Информация : Digital Theater Systems
Режим : 16
Параметр Endianness формата : Big
Продолжительность : 1 ч. 30 м.
Вид битрейта : Постоянный
Битрейт : 1509 Кбит/сек
Каналы : 6 каналов
Расположение каналов : Front: L C R, Side: L R, LFE
Частота : 48,0 КГц
Битовая глубина : 24 бит
Метод сжатия : С потерями
Размер потока : 974 Мбайт

Общее
Полное имя : D:VideoCommando.1985.BDRip.1080pCommando.1985.rus.R5.srt
Размер файла : 57,5 Кбайт

Общее
Полное имя : D:VideoCommando.1985.BDRip.1080pCommando.1985.rus.Гоблин.srt
Размер файла : 78,7 Кбайт
pb.wtf



Скачать Коммандос через торрент http://i68.fastpic.ru/big/2014/0928/ad/9be09bb6cf8233b76d4f49f9bdd330ad.png Скачать фильм Коммандос через торрент бесплантно в хорошем качестве Описание: Бывший командир спецотряда, участвовавшего в секретных операциях на Ближнем Востоке, СССР и Центральной Америке, полковник в ... 10 10 8
Торрент: Зарегистрирован [2014-09-28 15:01] · скачан: 46 раз
Статус: √ проверено
Размер: 15.72 GB
Как cкачать? Как скачать Коммандос через торрент | qTorrent

% Раздел Тема Автор DL S | L
Фильмы [HD 720p, 1080p] (Хороший звук DUB, MVO) [ 10.14 GB ] Коммандос / Commando [1985 BDRip 720p] MVO DVO AVO msltel Скачать
1 | 0

28-11-2019 20:33  

Отключить всю рекламу на сайте

28-09-2014 19:03 Коммандос Скачать торрент  

о, круто - помню в раннем детстве первый раз посмотрел...pb.wtf



    Дорогой пользователь! Огромная просьба, поблагодарите релизера, оцените раздачу и оставьте свои комментарий, если Вы скачали Коммандос через торрент бесплатно! Внесите свою лепту в развитие PiratBit!
    Комментировать посты могут только пользователи прошедшие не сложную регистрацию
    Показать сообщения:    

    Коммандос через торрент
    Скачать бесплатно Коммандос
    Коммандос скачать торрент
    Коммандос смотреть онлайн
    Cкачать фильм Коммандос бесплатно
    Коммандос скачать торрент в хорошем качестве
    Коммандос смотреть онлайн бесплатно в хорошем качестве


    Вы не можете начинать темы
    Вы не можете отвечать на сообщения
    Вы не можете редактировать свои сообщения
    Вы не можете удалять свои сообщения
    Вы не можете голосовать в опросах
    Вы не можете прикреплять файлы к сообщениям
    Вы можете скачивать файлы