Ссылка на приватное зеркало нашего сайта всего за 1$. Внимание количество ограничено!!!

2 сезон

iTunes

1 сезон

1

iTunes

iTunes

iTunes

1 сезон

RePack

30

ИГРА 18+

pack

ВАЖНО

!!Акция!!

Alien_RageХит недели

RePack

MK11
pack

Забери бонус

RePack

jed

!!Акция!!

Alien_Rage

RePack

fifa19

RePack

Assassins Creed: Odyssey

RePack

NEED FOR SPEED™ PAYBACK

4 сезон

9 сезон

Бесстыжие 9 сезон

Все сериалы

все сериалы на PB.wtf

RePack

FAR CRY 5
  

Фабрика футбольных хулиганов / The Hooligan Factory (Ник Неверн / Nick Nevern) [2014, Великобритания, комедия, BDRip 720p, DVO [den904, DeadSno] pb.wtf

Фабрика футбольных хулиганов через торрент pb.wtf

Размер: 4.03 GB | Добавлен: 6 лет 2 мес. назад | Торрент скачан:345 раз
Скачать  

06-08-2014 07:43 Фабрика футбольных хулиганов Скачать торрент  

Фабрика футбольных хулиганов / The Hooligan Factory
«Football Violence, So funny...it hurts»

Год выпуска: 2014
Страна: Великобритания
Жанр:комедия
Продолжительность:01:29:46
Перевод:Любительский (двухголосый)[den904, DeadSno]
Субтитры: Russian, Romany, English
Режиссер:Ник Неверн / Nick Nevern

  • В ролях:

    Джейсон Мацца (Danny), Ник Неверн (Dex), Том Бёрк (Bullet), Рэй Фиарон (Midnight), Стив О’Доннелл (Old Bill), Морган Уоткинс (Trumpet), Джозеф Алтин (Weasel), Ронни Фокс (Danny Snr), Лео Грегори (Slasher), Кейт-Ли Кастл (The Baron), Лоррэйн Стэнли (Sharon), Крэйг Фэйрбрасс (Mickey)

  • Описание:
    Дэнни хочет чего-то большего. Исключенный из школы, он находит футбольного хулигана Дэкстера, который посвящает Дэнни в Фабрику Футбольных Хулиганов. Футбольные Хулиганы ведут борьбу с группировкой Барона, который подкупил полицейских города и хочет уничтожить Хулиганов. В ход идет оружие, подкупы и самые невероятные вещи. Две самые большие футбольные группировки ждет бескомпромиссная борьба за право называться N1 в мире футбольных фанатов.

  • Мировая премьера:13 июня 2014


      Качество: BDRip 720p
      Формат:MKV
      Видео кодек: AVC
      Аудио кодек:AC3, DTS
      Видео: 1280x544 (2.35:1), 4458 kbps, 23,976 fps
      Аудио №1: русский/ 5.1/ 48 kHz/ 448 kbps/ AC3/ || [DeadSno & den904]
      Аудио №2: русский/ 5.1/ 48 kHz/ 755 kbps/ DTS/ || [DeadSno & den904]
      Аудио №3: английский/ 5.1/ 48 kHz/ 755 kbps/ DTS


    Код:

    General
    Unique ID                                : 171555894468595221066019484387139491306 (0x811076A34DCF2ACBA92A8923910595EA)
    Complete name                            : D:\Торенты\The.Hooligan.Factory.2014.L2.BDRip.720p.mkv
    Format                                   : Matroska
    Format version                           : Version 4 / Version 2
    File size                                : 4.03 GiB
    Duration                                 : 1h 29mn
    Overall bit rate                         : 6 432 Kbps
    Encoded date                             : UTC 2014-08-05 15:54:24
    Writing application                      : mkvmerge v6.1.0 ('Old Devil') built on Mar  4 2013 09:10:42
    Writing library                          : libebml v1.3.0 + libmatroska v1.4.0

    Video
    ID                                       : 1
    Format                                   : AVC
    Format/Info                              : Advanced Video Codec
    Format profile                           : High@L4.1
    Format settings, CABAC                   : Yes
    Format settings, ReFrames                : 5 frames
    Codec ID                                 : V_MPEG4/ISO/AVC
    Duration                                 : 1h 29mn
    Bit rate                                 : 4 458 Kbps
    Width                                    : 1 280 pixels
    Height                                   : 544 pixels
    Display aspect ratio                     : 2.35:1
    Frame rate                               : 23.976 fps
    Color space                              : YUV
    Chroma subsampling                       : 4:2:0
    Bit depth                                : 8 bits
    Scan type                                : Progressive
    Bits/(Pixel*Frame)                       : 0.267
    Stream size                              : 2.73 GiB (68%)
    Writing library                          : x264 core 142 r2431 ac76440
    Encoding settings                        : cabac=1 / ref=5 / deblock=1:0:0 / analyse=0x3:0x133 / me=umh / subme=10 / psy=1 / psy_rd=1.00:0.00 / mixed_ref=1 / me_range=16 / chroma_me=1 / trellis=2 / 8x8dct=1 / cqm=0 / deadzone=21,11 / fast_pskip=1 / chroma_qp_offset=-2 / threads=16 / lookahead_threads=1 / sliced_threads=0 / nr=0 / decimate=1 / interlaced=0 / bluray_compat=0 / constrained_intra=0 / bframes=3 / b_pyramid=2 / b_adapt=2 / b_bias=0 / direct=1 / weightb=1 / open_gop=0 / weightp=2 / keyint=240 / keyint_min=23 / scenecut=40 / intra_refresh=0 / rc_lookahead=40 / rc=2pass / mbtree=1 / bitrate=4458 / ratetol=1.0 / qcomp=0.60 / qpmin=10 / qpmax=51 / qpstep=4 / cplxblur=20.0 / qblur=0.5 / vbv_maxrate=40000 / vbv_bufsize=30000 / nal_hrd=none / filler=0 / ip_ratio=1.40 / aq=1:1.00
    Language                                 : English
    Default                                  : Yes
    Forced                                   : No

    Audio #1
    ID                                       : 2
    Format                                   : AC-3
    Format/Info                              : Audio Coding 3
    Mode extension                           : CM (complete main)
    Codec ID                                 : A_AC3
    Duration                                 : 1h 29mn
    Bit rate mode                            : Constant
    Bit rate                                 : 448 Kbps
    Channel(s)                               : 6 channels
    Channel positions                        : Front: L C R, Side: L R, LFE
    Sampling rate                            : 48.0 KHz
    Bit depth                                : 16 bits
    Compression mode                         : Lossy
    Stream size                              : 288 MiB (7%)
    Language                                 : Russian
    Default                                  : Yes
    Forced                                   : No

    Audio #2
    ID                                       : 3
    Format                                   : DTS
    Format/Info                              : Digital Theater Systems
    Codec ID                                 : A_DTS
    Duration                                 : 1h 29mn
    Bit rate mode                            : Constant
    Bit rate                                 : 755 Kbps
    Channel(s)                               : 6 channels
    Channel positions                        : Front: L C R, Side: L R, LFE
    Sampling rate                            : 48.0 KHz
    Bit depth                                : 24 bits
    Compression mode                         : Lossy
    Stream size                              : 484 MiB (12%)
    Language                                 : Russian
    Default                                  : No
    Forced                                   : No

    Audio #3
    ID                                       : 4
    Format                                   : DTS
    Format/Info                              : Digital Theater Systems
    Codec ID                                 : A_DTS
    Duration                                 : 1h 29mn
    Bit rate mode                            : Constant
    Bit rate                                 : 755 Kbps
    Channel(s)                               : 6 channels
    Channel positions                        : Front: L C R, Side: L R, LFE
    Sampling rate                            : 48.0 KHz
    Bit depth                                : 24 bits
    Compression mode                         : Lossy
    Stream size                              : 484 MiB (12%)
    Language                                 : English
    Default                                  : No
    Forced                                   : No

    Text #1
    ID                                       : 5
    Format                                   : UTF-8
    Codec ID                                 : S_TEXT/UTF8
    Codec ID/Info                            : UTF-8 Plain Text
    Language                                 : Russian
    Default                                  : Yes
    Forced                                   : No

    Text #2
    ID                                       : 6
    Format                                   : UTF-8
    Codec ID                                 : S_TEXT/UTF8
    Codec ID/Info                            : UTF-8 Plain Text
    Language                                 : rom
    Default                                  : No
    Forced                                   : No

    Text #3
    ID                                       : 7
    Format                                   : UTF-8
    Codec ID                                 : S_TEXT/UTF8
    Codec ID/Info                            : UTF-8 Plain Text
    Language                                 : English
    Default                                  : No
    Forced                                   : No

    Скриншоты:

    Каталог Новинок (Фильмы-трейлеры, Игры, Сериалы, Мультфильмы)

    © Оформление by Raven
    pb.wtf



  • Скачать Фабрика футбольных хулиганов через торрент http://pic.kartinco.top/new/img/2014-08/06/6pvyxybanx9td1ui0fnpjq2ld.png Скачать фильм Фабрика футбольных хулиганов через торрент бесплантно в хорошем качестве Описание:Дэнни хочет чего-то большего. Исключенный из школы, он находит футбольного хулигана Дэкстера, который посвящает Дэнни в Фабрику ... 9.9 10 17
    Info! Серебряная раздача, засчитывается только 50% скачанного.
    Торрент: Зарегистрирован [2014-08-06 15:25] · скачан: 345 раз
    Статус: √ проверено
    Размер: 4.03 GB
    Как cкачать? Как скачать Фабрика футбольных хулиганов через торрент | qTorrent

    % Раздел Тема Автор DL S | L
    Фильмы 2014 [DVDrip, WEB-DLRip, HDrip] [ 1.46 GB ] Фабрика футбольных хулиганов / The Hooligan Factory [2014 HDRip] 2x[MVO] killermax2013 Скачать
    1 | 0
    T Фильмы 2014 (Звук TS, Cam, VO, DVO) [ 1.37 GB ] Фабрика футбольных хулиганов / The Hooligan Factory [2014 HDRip Любительский [den904 DeadSno] Ворон Скачать
    1 | 0

    28-11-2019 20:33  

    Отключить всю рекламу на сайте

      Дорогой пользователь! Огромная просьба, поблагодарите релизера, оцените раздачу и оставьте свои комментарий, если Вы скачали Фабрика футбольных хулиганов через торрент бесплатно! Внесите свою лепту в развитие PiratBit!
      Комментировать посты могут только пользователи прошедшие не сложную регистрацию
      Показать сообщения:    

      Фабрика футбольных хулиганов через торрент
      Скачать бесплатно Фабрика футбольных хулиганов
      Фабрика футбольных хулиганов скачать торрент
      Фабрика футбольных хулиганов смотреть онлайн
      Cкачать фильм Фабрика футбольных хулиганов бесплатно
      Фабрика футбольных хулиганов скачать торрент в хорошем качестве
      Фабрика футбольных хулиганов смотреть онлайн бесплатно в хорошем качестве


      Вы не можете начинать темы
      Вы не можете отвечать на сообщения
      Вы не можете редактировать свои сообщения
      Вы не можете удалять свои сообщения
      Вы не можете голосовать в опросах
      Вы не можете прикреплять файлы к сообщениям
      Вы можете скачивать файлы