Всегда рабочее зеркало без VPN и Proxy просто перед .vidak.icu напиши любое слово или цифру, Пример http://ae4q.vidak.icu

MVO

2 сезон

1 сезон

1

1 сезон

iTunes

2 сезон

13

1 сезон

Распродажа

pack

Рекомендуем

Пиратка

30

ВАЖНО

RePack

MK11

RePack

jed

RePack

fifa19

RePack

RDR2

RePack

NEED FOR SPEED™ PAYBACK

Кинопоиск HD

6 сезон

 Острые козырьки 6 сезон

Все сериалы

все сериалы на PB.wtf

RePack

FAR CRY 5

Anonymous, нам критически не хватает 5601 руб. на оплату серверов и переферии за Апрель, помоги нам пожалуйста, вся надежда только на тебя. В благодарность мы отключим тебе всю рекламу на сайте!

×
  
Magnet ссылка

Женщина за стеной / Die Frau hinter der Wand (Гжегорж Мускала) [2013 г., триллер, HDRip, Любительский двухголосый "den904 & DeadSno"] pb.wtf

Женщина за стеной через торрент pb.wtf

Размер: 1.44 GB | Добавлен: 7 лет 7 мес. назад | Торрент скачан:76 раз
Смотреть онлайн Женщина за стеной | Скачать    Ребята, помогите собрать деньги на оплату серверов!!!

29-09-2014 17:24 Женщина за стеной Скачать торрент  

Женщина за стеной / Die Frau hinter der Wand
Год выпуска: 2013
Страна: Германия / Deutsche Film- und Fernsehakademie Berlin (DFFB), ONE TWO Films, ZDF/Das kleine Fernsehspiel
Жанр: триллер
Продолжительность: 01:35:04
Перевод: Любительский двухголосый (den904 & DeadSno)

Режиссер: Гжегорж Мускала

В ролях: Винсент Редецки, Катарина Хайер, Флориан Панцнер, Нильс Борман, Николай Кински, Рональд Ничке, Томоко Окада, Роберт Штадлобер, Лешек Сталевски, Петра Цизер

Описание: Мартин, молодой парень, приехавший на учебу в Берлин, снимает странную неухоженную квартиру, бывший жилец которой бесследно исчез. Позже он понимает, что в этой квартире скрыта страшная тайна, но не слишком ли поздно?

Качество: HDRip
Формат: AVI
Видео кодек: XviD
Аудио кодек: AC3
Видео: MPEG4, XviD, 720x384 (1.875), 24.000 fps, 1 970 Kbps (0.297 bit/pixel)
Аудио: AC-3, 48.0 KHz, 2 ch, 192 Kbps, CBR


Общее
Полное имя : G:\кино\Die.Frau.hinter.der.Wand.2013.HDRip.avi
Формат : AVI
Формат/Информация : Audio Video Interleave
Размер файла : 1,44 Гбайт
Продолжительность : 1 ч. 34 м.
Общий поток : 2171 Кбит/сек
Программа кодирования : VirtualDubMod 1.5.10.3 | www.virtualdub-fr.org || (build 2550/release)
Библиотека кодирования : VirtualDubMod build 2550/release

Видео
Идентификатор : 0
Формат : MPEG-4 Visual
Профиль формата : Advanced Simple@L5
Параметр BVOP формата : 2
Параметр QPel формата : Нет
Параметр GMC формата : Без точки перехода
Параметр матрицы формата : Default (H.263)
Идентификатор кодека : XVID
Идентификатор кодека/Подсказка : XviD
Продолжительность : 1 ч. 34 м.
Битрейт : 1970 Кбит/сек
Ширина : 720 пикселей
Высота : 384 пикселя
Соотношение сторон : 1,85:1
Частота кадров : 24,000 кадра/сек
Цветовое пространство : YUV
Субдискретизация насыщенности : 4:2:0
Битовая глубина : 8 бит
Тип развёртки : Прогрессивная
Метод сжатия : С потерями
Бит/(Пиксели*Кадры) : 0.297
Размер потока : 1,30 Гбайт (91%)
Библиотека кодирования : XviD 1.2.1 (UTC 2008-12-04)

Аудио
Идентификатор : 1
Формат : AC-3
Формат/Информация : Audio Coding 3
Расширение режима : CM (complete main)
Параметр Endianness формата : Big
Идентификатор кодека : 2000
Продолжительность : 1 ч. 34 м.
Вид битрейта : Постоянный
Битрейт : 192 Кбит/сек
Каналы : 2 канала
Расположение каналов : Front: L R
Частота : 48,0 КГц
Битовая глубина : 16 бит
Метод сжатия : С потерями
Размер потока : 130 Мбайт (9%)
Выравнивание : Разделение по промежуткам
Продолжительность промежутка : 42 мс. (1,00 видеокадр)
Время предзагрузки промежутка : 500 мс.

pb.wtf



Скачать Женщина за стеной через торрент https://pic1.kartinco.top/images/71/vzyoj.jpg Скачать, смотреть онлайн Женщина за стеной бесплантно в хорошем качестве Описание: Мартин, молодой парень, приехавший на учебу в Берлин, снимает странную неухоженную квартиру, бывший жилец которой бесследно ... 10 10 4
Торрент: Зарегистрирован [2014-09-29 17:24] · скачан: 76 раз
Статус: T временная
Размер: 1.44 GB
Как cкачать? Как скачать Женщина за стеной через торрент | UTorrent

% Раздел Тема Автор DL S | L
Фильмы (Blu-ray, BD-Remux, HDDVD) [ 26.92 GB ] Женщина за стеной / Die Frau hinter der Wand [2013 BDRemux 1080p] DVO Ворон Скачать
1 | 0

28-11-2019 20:33  

Отключить всю рекламу на сайте

    Дорогой пользователь! Огромная просьба, поблагодарите релизера, оцените раздачу и оставьте свои комментарий, если Вы скачали Женщина за стеной через торрент бесплатно!
    Комментировать посты могут только пользователи прошедшие не сложную регистрацию
    Показать сообщения:    

    Женщина за стеной через торрент
    Скачать бесплатно Женщина за стеной
    Женщина за стеной скачать торрент
    Женщина за стеной смотреть онлайн
    Cкачать фильм Женщина за стеной бесплатно
    Женщина за стеной скачать торрент в хорошем качестве
    Женщина за стеной смотреть онлайн бесплатно в хорошем качестве


    Вы не можете начинать темы
    Вы не можете отвечать на сообщения
    Вы не можете редактировать свои сообщения
    Вы не можете удалять свои сообщения
    Вы не можете голосовать в опросах
    Вы не можете прикреплять файлы к сообщениям
    Вы можете скачивать файлы