2 сезон

iTunes

MVO

1

2 сезон

iTunes

iTunes

1 сезон

RePack

30

Ultimate

ВАЖНО

ИГРА 18+

pack

RePack

MK11
pack

Легкие деньги

RePack

jed

RePack

fifa19

RePack

RDR2

RePack

NEED FOR SPEED™ PAYBACK

4 сезон

9 сезон

Бесстыжие 9 сезон

Все сериалы

все сериалы на PB.wtf

RePack

FAR CRY 5

Anonymous, доброй ночи, мы не успеваем собрать деньги на оплату серверов за декабрь и январь, помогите нам пожалуйста в это трудное время. В качестве благодарности мы отключим Вам всю рекламу на сайте (укажите свой ник в строку Ваше имя)!

×
  
Magnet ссылка

Цифровая радиостанция / The Numbers Station (Каспер Барфоэд / Kasper Barfoed) [2013, США, Боевик, триллер, BDRip-AVC] MVO (R5) + Original (Eng) + Sub (Rus, Eng) pb.wtf

Цифровая радиостанция через торрент pb.wtf

Раздают: 1 [ 0 KB/s ]
Размер: 1.46 GB | Добавлен: 6 лет 3 мес. назад | Торрент скачан:315 раз
Скачать  

29-09-2014 18:45 Цифровая радиостанция Скачать торрент  

Цифровая радиостанция
The Numbers Station

«The code has never been compromised. Until now»




Страна: Великобритания, США, Бельгия
Студия: Matador Pictures, Piccadilly Pictures, ContentFilm International
Жанр: боевик, триллер
Год выпуска: 2013
Продолжительность: 01:28:54

Перевод: Профессиональный (многоголосый закадровый) [Лицензия R5]
Cубтитры: Русские, Английские
Оригинальная аудиодорожка: Английский

Режиссер:
Каспер Барфоэд / Kasper Barfoed

В ролях:
Джон Кьюсак, Малин Акерман, Лиам Каннингэм, Ричард Брэйк, Брайан Дик, Финбар Линч, Люси Гриффитс, Джои Анса, Виктор Гарднер, Джо Монтана

Описание:
После сбоя, допущенного при выполнении «грязной» работы для правительства США, спецагента отправили на тихую должность, охранять оператора секретной радиостанции в английской глубинке…


Релиз:

Автор рипа: Stalker oK

Сэмпл: multi-up

Качество видео: BDRip-AVC [BDRemux 1080p]
Формат видео: MKV
Видео кодек: AVC
Аудио кодек: AC3
Видео: 1586 Кбит/сек, 1008*420 (2,40:1), в 23,976 кадр/сек, AVC
Аудио #1: Russian, 384 Кбит/сек, 48,0 КГц, 16 бит, 6 канала(ов), AC-3
Аудио #2: English, 384 Кбит/сек, 48,0 КГц, 16 бит, 6 канала(ов), AC-3
Общее
Уникальный идентификатор : 238808917536799701162054468072348657578 (0xB3A8ECADCE8F7321ACA180A5605927AA)
Полное имя : D:\temp\Цифровая радиостанция The Numbers Station\Cifrovaja.radiostancija.2013.BDRip-AVC.MVO.1.45Gb...stalkerok.new-team.mkv
Формат : Matroska
Размер файла : 1,46 Гбайт
Продолжительность : 1 ч. 28 м.
Общий поток : 2349 Кбит/сек
Название фильма : The Numbers Station, 2013 (New-Team) (Rip by Stalker oK)
Дата кодирования : UTC 2014-09-29 17:41:21
Программа кодирования : mkvmerge v6.1.0 ('Old Devil') built on Mar 4 2013 09:10:42
Библиотека кодирования : libebml v1.3.0 + libmatroska v1.4.0
Обложка : Yes

Видео
Идентификатор : 1
Формат : AVC
Формат/Информация : Advanced Video Codec
Профиль формата : High@L4.1
Параметр CABAC формата : Да
Параметр ReFrames формата : 10 кадры
Идентификатор кодека : V_MPEG4/ISO/AVC
Продолжительность : 1 ч. 28 м.
Битрейт : 1586 Кбит/сек
Ширина : 1008 пикс.
Высота : 420 пикс.
Соотношение сторон : 2,40:1
Частота кадров : 23,976 кадр/сек
Цветовое пространство : YUV
Подвыборка цветности : 4:2:0
Битовая глубина : 8 бит
Тип развёртки : Прогрессивная
Бит/(Пиксели*Кадры) : 0.156
Размер потока : 975 Мбайт (65%)
Библиотека кодирования : x264 core 142 r2431 ac76440
Настройки программы : cabac=1 / ref=10 / deblock=1:-3:-3 / analyse=0x3:0x133 / me=umh / subme=11 / psy=1 / psy_rd=1.00:0.15 / mixed_ref=1 / me_range=48 / chroma_me=1 / trellis=2 / 8x8dct=1 / cqm=0 / deadzone=21,11 / fast_pskip=0 / chroma_qp_offset=-3 / threads=12 / lookahead_threads=3 / sliced_threads=0 / nr=0 / decimate=0 / interlaced=0 / bluray_compat=0 / constrained_intra=0 / bframes=12 / b_pyramid=2 / b_adapt=2 / b_bias=0 / direct=3 / weightb=1 / open_gop=0 / weightp=2 / keyint=240 / keyint_min=23 / scenecut=40 / intra_refresh=0 / rc_lookahead=80 / rc=2pass / mbtree=0 / bitrate=1586 / ratetol=1.0 / qcomp=0.70 / qpmin=0 / qpmax=69 / qpstep=4 / cplxblur=20.0 / qblur=0.5 / vbv_maxrate=20000 / vbv_bufsize=25000 / nal_hrd=none / filler=0 / ip_ratio=1.20 / pb_ratio=1.10 / aq=2:0.90

Аудио #1
Идентификатор : 2
Формат : AC-3
Формат/Информация : Audio Coding 3
Расширение режима : CM (complete main)
Идентификатор кодека : A_AC3
Продолжительность : 1 ч. 28 м.
Вид битрейта : Постоянный
Битрейт : 384 Кбит/сек
Канал(ы) : 6 канала(ов)
Расположение каналов : Front: L C R, Side: L R, LFE
Частота : 48,0 КГц
Битовая глубина : 16 бит
Метод сжатия : С потерями
Размер потока : 244 Мбайт (16%)
Язык : Russian

Аудио #2
Идентификатор : 3
Формат : AC-3
Формат/Информация : Audio Coding 3
Расширение режима : CM (complete main)
Идентификатор кодека : A_AC3
Продолжительность : 1 ч. 28 м.
Вид битрейта : Постоянный
Битрейт : 384 Кбит/сек
Канал(ы) : 6 канала(ов)
Расположение каналов : Front: L C R, Side: L R, LFE
Частота : 48,0 КГц
Битовая глубина : 16 бит
Метод сжатия : С потерями
Размер потока : 244 Мбайт (16%)
Язык : English

Текст #1
Идентификатор : 4
Формат : UTF-8
Идентификатор кодека : S_TEXT/UTF8
Идентификатор кодека/Информация : UTF-8 Plain Text
Язык : Russian

Текст #2
Идентификатор : 5
Формат : UTF-8
Идентификатор кодека : S_TEXT/UTF8
Идентификатор кодека/Информация : UTF-8 Plain Text
Язык : English

Меню
00:00:00.000 : en:Chapter 01
00:08:55.618 : en:Chapter 02
00:17:31.717 : en:Chapter 03
00:25:58.098 : en:Chapter 04
00:33:37.890 : en:Chapter 05
00:42:08.275 : en:Chapter 06
00:50:37.701 : en:Chapter 07
00:59:09.837 : en:Chapter 08
01:06:11.092 : en:Chapter 09
01:11:15.938 : en:Chapter 10
01:18:04.971 : en:Chapter 11
01:23:55.697 : en:Chapter 12
pb.wtf



Скачать Цифровая радиостанция через торрент http://i4.imageban.ru/out/2013/11/20/23afd37ba301cf29b16658cd2201c4ed.png Скачать фильм Цифровая радиостанция через торрент бесплантно в хорошем качестве Описание:После сбоя, допущенного при выполнении «грязной» работы для правительства США, спецагента отправили на тихую должность, охранять ... 9 10 10
Торрент: Зарегистрирован [2014-09-29 18:45] · скачан: 315 раз
Статус: √ проверено
Размер: 1.46 GB
Как cкачать? Как скачать Цифровая радиостанция через торрент | UTorrent

% Раздел Тема Автор DL S | L
Фильмы 2013 [DVDrip, WEB-DLRip, HDrip] [ 746 MB ] Цифровая радиостанция / The Numbers Station [2013 BDRip-AVC] MVO + Sub sokol_ok Скачать
2 | 0
Фильмы (Blu-ray, BD-Remux, HDDVD) [ 17.78 GB ] Цифровая радиостанция / The Numbers Station [2013 BD-Remux многоголосый - ] _KaisiK_ Скачать
1 | 0
Фильмы (DVD фильмы) [ 3.88 GB ] Цифровая радиостанция / The Numbers Station [2012 DVD5] R5 voovaz Скачать
1 | 0
Фильмы 2013 [DVDrip, WEB-DLRip, HDrip] [ 1.37 GB ] Цифровая радиостанция / The Numbers Station [2013 HDRip многоголосый [] Ворон Скачать
1 | 0

28-11-2019 20:33  

Отключить всю рекламу на сайте

    Дорогой пользователь! Огромная просьба, поблагодарите релизера, оцените раздачу и оставьте свои комментарий, если Вы скачали Цифровая радиостанция через торрент бесплатно! Внесите свою лепту в развитие PiratBit!
    Комментировать посты могут только пользователи прошедшие не сложную регистрацию
    Показать сообщения:    

    Цифровая радиостанция через торрент
    Скачать бесплатно Цифровая радиостанция
    Цифровая радиостанция скачать торрент
    Цифровая радиостанция смотреть онлайн
    Cкачать фильм Цифровая радиостанция бесплатно
    Цифровая радиостанция скачать торрент в хорошем качестве
    Цифровая радиостанция смотреть онлайн бесплатно в хорошем качестве


    Вы не можете начинать темы
    Вы не можете отвечать на сообщения
    Вы не можете редактировать свои сообщения
    Вы не можете удалять свои сообщения
    Вы не можете голосовать в опросах
    Вы не можете прикреплять файлы к сообщениям
    Вы можете скачивать файлы