2 сезон

iTunes

MVO

1

2 сезон

iTunes

iTunes

1 сезон

RePack

30

Новинка

ВАЖНО

ИГРА 18+

pack

RePack

MK11
pack

Легкие деньги

RePack

jed

RePack

fifa19

RePack

RDR2

RePack

NEED FOR SPEED™ PAYBACK

4 сезон

9 сезон

Бесстыжие 9 сезон

Все сериалы

все сериалы на PB.wtf

RePack

FAR CRY 5

Anonymous, доброй ночи, мы не успеваем собрать деньги на оплату серверов за декабрь и январь, помогите нам пожалуйста в это трудное время. В качестве благодарности мы отключим Вам всю рекламу на сайте (укажите свой ник в строку Ваше имя)!

×
  
Magnet ссылка

Наблюдение / Surveillance (Себастьен Гралл / Sébastien Grall) [2013, Франция, криминал, SATRip, Профессиональный многоголосый] pb.wtf

Наблюдение через торрент pb.wtf

Размер: 1.37 GB | Добавлен: 6 лет 3 мес. назад | Торрент скачан:132 раза
Скачать  

29-09-2014 20:25 Наблюдение Скачать торрент  

Наблюдение / Surveillance

Год выпуска: 2013
Страна: Франция
Жанр: криминал
Продолжительность: 01:26:16
Перевод: Профессиональный многоголосый [Кинопоказ]
Субтитры: Отсутствует
Режиссер: Себастьен Гралл / Sébastien Grall
В ролях:


Тома Жуанне (Pierre Solvy), Франсуа Берлеан (JC Dedieu), Леони Симага (Léa), Александр Стайгер (Mathieu Sauveterre), Жан-Люк Поррац (Léonard Lamy), Франсис Перрен (Richard Texier), Брижит Си (Michele), Юбер Сен-Макари (Jacques), Жюли Фаренс (Audrey)

Описание:
Пьер Солви работает охранником в супермаркете, в его распоряжении - несколько видеокамер, развешанных по всему торговому залу. Но вскоре он понимает, что в его обязанности входит не только наблюдение за клиентами, но и шпионаж за сотрудниками.

Рейтинг:

Качество: SATRip
Формат: AVI
Видео кодек:XviD
Аудио кодек:AC3
Видео: XviD, 720x400 (16:9), 2070 kbps, 25 fps, 0,288 bpp
Аудио: AC3 / 2.0 / 48 kHz / 192 kbps / 16 bit

General
Complete name : D:\Users\_KaisiK_\uTorrent\КИНО\HablyudeHie..avi
Format : AVI
Format/Info : Audio Video Interleave
File size : 1.37 GiB
Duration : 1h 26mn
Overall bit rate : 2 272 Kbps
Movie name : Наблюдение / Surveillance (2013)
Writing application : VirtualDubMod 1.5.10.2 (build 2540/release)
Writing library : VirtualDubMod build 2540/release
Copyright : miha2154

Video
ID : 0
Format : MPEG-4 Visual
Format profile : Advanced Simple@L5
Format settings, BVOP : 1
Format settings, QPel : No
Format settings, GMC : No warppoints
Format settings, Matrix : Custom
Codec ID : XVID
Codec ID/Hint : XviD
Duration : 1h 26mn
Bit rate : 2 070 Kbps
Width : 720 pixels
Height : 400 pixels
Display aspect ratio : 16:9
Frame rate : 25.000 fps
Color space : YUV
Chroma subsampling : 4:2:0
Bit depth : 8 bits
Scan type : Progressive
Compression mode : Lossy
Bits/(Pixel*Frame) : 0.288
Stream size : 1.25 GiB (91%)
Writing library : XviD 65

Audio
ID : 1
Format : AC-3
Format/Info : Audio Coding 3
Mode extension : CM (complete main)
Codec ID : 2000
Duration : 1h 26mn
Bit rate mode : Constant
Bit rate : 192 Kbps
Channel(s) : 2 channels
Channel positions : Front: L R
Sampling rate : 48.0 KHz
Bit depth : 16 bits
Compression mode : Lossy
Stream size : 118 MiB (8%)
Alignment : Split accross interleaves
Interleave, duration : 40 ms (1.00 video frame)
Interleave, preload duration : 500 ms
Title : Профессиональный (многоголосый закадровый)

[/code]
pb.wtf



Скачать Наблюдение через торрент http://i5.imageban.ru/out/2014/09/30/19ecd00fedf48ebaed4dec400a44025f.jpg Скачать фильм Наблюдение через торрент бесплантно в хорошем качестве Описание: Пьер Солви работает охранником в супермаркете, в его распоряжении - несколько видеокамер, развешанных по всему торговому залу. Но ... 9.9 10 7
Торрент: Зарегистрирован [2014-09-29 20:25] · скачан: 132 раз
Статус: √ проверено
Размер: 1.37 GB
Как cкачать? Как скачать Наблюдение через торрент | UTorrent

% Раздел Тема Автор DL S | L
T Фильмы (мультфильмы) cо спонсором показа (Новинки AVI/MKV) [ 1.3 GB ] Наблюдение няни / Nanny Surveillance [2018 HDTVRip Любительский ] oleg8 Скачать
1 | 0


Последний раз редактировалось: _KaisiK_ (2014-12-11 14:04), всего редактировалось 2 раз(а)

28-11-2019 20:33  

Отключить всю рекламу на сайте

30-09-2014 09:24 Наблюдение Скачать торрент  

Как фильмpb.wtf



    Дорогой пользователь! Огромная просьба, поблагодарите релизера, оцените раздачу и оставьте свои комментарий, если Вы скачали Наблюдение через торрент бесплатно! Внесите свою лепту в развитие PiratBit!
    Комментировать посты могут только пользователи прошедшие не сложную регистрацию
    Показать сообщения:    

    Наблюдение через торрент
    Скачать бесплатно Наблюдение
    Наблюдение скачать торрент
    Наблюдение смотреть онлайн
    Cкачать фильм Наблюдение бесплатно
    Наблюдение скачать торрент в хорошем качестве
    Наблюдение смотреть онлайн бесплатно в хорошем качестве


    Вы не можете начинать темы
    Вы не можете отвечать на сообщения
    Вы не можете редактировать свои сообщения
    Вы не можете удалять свои сообщения
    Вы не можете голосовать в опросах
    Вы не можете прикреплять файлы к сообщениям
    Вы можете скачивать файлы