Ссылка на приватное зеркало нашего сайта всего за 1$. Внимание количество ограничено!!!

2 сезон

iTunes

1 сезон

1

iTunes

iTunes

iTunes

1 сезон

RePack

30

ИГРА 18+

pack

ВАЖНО

!!Акция!!

Alien_RageХит недели

RePack

MK11
pack

Забери бонус

RePack

jed

!!Акция!!

Alien_Rage

RePack

fifa19

RePack

Assassins Creed: Odyssey

RePack

NEED FOR SPEED™ PAYBACK

4 сезон

9 сезон

Бесстыжие 9 сезон

Все сериалы

все сериалы на PB.wtf

RePack

FAR CRY 5
  

Кого ты любишь / Someone You Love (Пернилла Фишер Кристенсен / Pernille Fischer Christensen) [2014, Дания, драма, DVDRip, Любительский (одноголосый)] pb.wtf

Кого ты любишь через торрент pb.wtf

Размер: 1.26 GB | Добавлен: 6 лет назад | Торрент скачан:50 раз
Скачать  

29-09-2014 21:19 Кого ты любишь Скачать торрент  

Кого ты любишь / Someone You Love

Год выпуска: 2014
Страна: Дания
Жанр: драма
Продолжительность: 01:31:27
Перевод: Любительский (одноголосый) Lord32x
Субтитры: Отсутствует
Режиссер: Пернилла Фишер Кристенсен / Pernille Fischer Christensen
В ролях:


Микаэл Персбрандт (Thomas Jacob), Трине Дюрхольм (Molly Moe), Биргитта Йорт Сёренсен (Julie), Sofus Rønnov (Noa), Ив Бест (Kate), Лурдес Фаберес (Pepita Ponce), Питер Фродин (Talkshow Host), Томас Хван Х. Андерсен (Teacher), Асгер Готтлиб (Chauffeur), Alfa Liv Ottesen (Molly's daughter), Anders Wallin (Molly's assistent), Йонас Крэг (Guitarist)

Описание:
Всемирно известный певец Томас Джейкоб живет в Лос-Анджелесе. Он очень успешный человек. Он живет и дышит музыкой. Когда Томас отправляется в Данию, чтобы записать новый альбом, к нему приходит его взрослая дочь Джули с его 11-летним внуком Ноа, которого Томас никогда не видел.

Рейтинг:

Качество: DVDRip
Формат: AVI
Видео кодек:XviD
Аудио кодек:AC3
Видео: XviD, 720x304 (2.35:1), 1584 kbps, 25 fps, 0,290 bpp
Аудио: AC3 / 5.1 / 48 kHz / 384 kbps / 16 bit

General
Complete name : D:\Users\_KaisiK_\uTorrent\КИНО\Someone.You.Love.2014.DVDRip.1300MB........avi
Format : AVI
Format/Info : Audio Video Interleave
File size : 1.26 GiB
Duration : 1h 31mn
Overall bit rate : 1 978 Kbps
Writing application : VirtualDubMod 1.5.10.3 | www.virtualdub-fr.org || (build 2550/release)
Writing library : VirtualDubMod build 2550/release

Video
ID : 0
Format : MPEG-4 Visual
Format profile : Advanced Simple@L5
Format settings, BVOP : 1
Format settings, QPel : No
Format settings, GMC : No warppoints
Format settings, Matrix : Default (MPEG)
Codec ID : XVID
Codec ID/Hint : XviD
Duration : 1h 31mn
Bit rate : 1 585 Kbps
Width : 720 pixels
Height : 304 pixels
Display aspect ratio : 2.35:1
Frame rate : 25.000 fps
Color space : YUV
Chroma subsampling : 4:2:0
Bit depth : 8 bits
Scan type : Progressive
Compression mode : Lossy
Bits/(Pixel*Frame) : 0.290
Stream size : 1.01 GiB (80%)
Writing library : XviD 1.2.1 (UTC 2008-12-04)

Audio
ID : 1
Format : AC-3
Format/Info : Audio Coding 3
Mode extension : CM (complete main)
Codec ID : 2000
Duration : 1h 31mn
Bit rate mode : Constant
Bit rate : 384 Kbps
Channel(s) : 6 channels
Channel positions : Front: L C R, Side: L R, LFE
Sampling rate : 48.0 KHz
Bit depth : 16 bits
Compression mode : Lossy
Stream size : 251 MiB (19%)
Alignment : Split accross interleaves
Interleave, duration : 40 ms (1.00 video frame)
Interleave, preload duration : 500 ms

[/code]
pb.wtf



Скачать Кого ты любишь через торрент http://i6.imageban.ru/out/2014/09/30/bbb1f523af5f25b32faa54e21bcd6263.jpg Скачать фильм Кого ты любишь через торрент бесплантно в хорошем качестве Описание: Всемирно известный певец Томас Джейкоб живет в Лос-Анджелесе. Он очень успешный человек. Он живет и дышит музыкой. Когда Томас ... 10 10 4
Торрент: Зарегистрирован [2014-09-29 21:19] · скачан: 50 раз
Статус: √ проверено
Размер: 1.26 GB
Как cкачать? Как скачать Кого ты любишь через торрент | qTorrent

28-11-2019 20:33  

Отключить всю рекламу на сайте

    Дорогой пользователь! Огромная просьба, поблагодарите релизера, оцените раздачу и оставьте свои комментарий, если Вы скачали Кого ты любишь через торрент бесплатно! Внесите свою лепту в развитие PiratBit!
    Комментировать посты могут только пользователи прошедшие не сложную регистрацию
    Показать сообщения:    

    Кого ты любишь через торрент
    Скачать бесплатно Кого ты любишь
    Кого ты любишь скачать торрент
    Кого ты любишь смотреть онлайн
    Cкачать фильм Кого ты любишь бесплатно
    Кого ты любишь скачать торрент в хорошем качестве
    Кого ты любишь смотреть онлайн бесплатно в хорошем качестве


    Вы не можете начинать темы
    Вы не можете отвечать на сообщения
    Вы не можете редактировать свои сообщения
    Вы не можете удалять свои сообщения
    Вы не можете голосовать в опросах
    Вы не можете прикреплять файлы к сообщениям
    Вы можете скачивать файлы