новый адрес
Ссылка на приватное зеркало всего за 1$. Внимание количество ограничено!!!

iTunes

1+1

iTunes

мы

WEB-DL

1

iTunes

Чернобыль

iTunes

Ральф против интернета

Лицензия

ПШазам

Лицензия

Оно 2

Лицензия

30
pack

Вам бонус

ВАЖНО

!!Акция!!

Alien_RageХит недели

RePack

Resident Evil 21

ИГРА 18+

pack

RePack

jed

!!Акция!!

Alien_Rage

RePack

fifa19

RePack

Assassins Creed: Odyssey

RePack

NEED FOR SPEED™ PAYBACK

3 сезон

9 сезон

Бесстыжие 9 сезон

Все сериалы

все сериалы на PB.wtf

RePack

FAR CRY 5
Ребята, катастрофически не хватает 1900р. для оплаты серверов за Октябрь (всвязи с блокировками трафик упал в 3 раза), 1-2р., выручайте.
  

Теорема Зеро / The Zero Theorem (Терри Гиллиам / Terry Gilliam) [2013, Великобритания, Румыния, Франция, США, фантастика, триллер, драма, HDRip, Дубляж - Лицензия / iTunes] pb.wtf

Теорема Зеро через торрент pb.wtf

Раздают: 1 [ 0 KB/s ]
Размер: 1.46 GB | Добавлен: 5 лет 2 мес. назад | Торрент скачан:890 раз
Скачать  

29-09-2014 23:53 Теорема Зеро Скачать торрент  

Теорема Зеро / The Zero Theorem«Nothing is everything»
Год выпуска: 2013
Страна: Великобритания, Румыния, Франция, США
Жанр: фантастика, триллер, драма, комедия
Продолжительность: 01:46:37
Перевод: Дубляж - [Лицензия / iTunes]
Субтитры: Отсутствует
Режиссер: Терри Гиллиам / Terry Gilliam
В ролях:


Кристоф Вальц (Qohen Leth), Гвендолин Кристи (Woman in a Street Commercial), Руперт Френд (Man in Street Commercial), Рэй Купер (Man in Street Commercial), Лили Коул (Woman in Street Commercial), Дэвид Тьюлис (Joby), Санджив Бхаскар (Doctor), Петер Стормаре (Doctor), Бен Уишоу (Doctor), Мелани Тьерри (Bainsley), Мэтт Дэймон (Management), Лукас Хеджес (Bob)

Описание:
Эксцентричный компьютерный гений Коэн Лет бьется над неразрешимой теоремой. Благодаря костюму для виртуальной реальности, изобретенному мальчиком Бобом, Лету удается совершить путешествие в скрытое пространство и узнать тайну своей души. Эту разгадку ищет не только он сам, но и таинственный Менеджмент, который правит всем миром посредством всевидящих устройств под названием ManCams.

Рейтинг:

MPAA: R - Лицам до 17 лет обязательно присутствие взрослого
Качество: HDRip
Формат: AVI
Видео кодек:XviD
Аудио кодек:AC3
Видео: XviD, 720x400 (16:9), 1566 kbps, 23,976 fps, 0,227 bpp
Аудио: AC3 / 5.1 / 48 kHz / 384 kbps / 16 bit

General
Complete name : D:\Users\_KaisiK_\uTorrent\КИНО\Teorema.Zero.2013.D.HDRip.avi
Format : AVI
Format/Info : Audio Video Interleave
File size : 1.46 GiB
Duration : 1h 46mn
Overall bit rate : 1 960 Kbps
Writing application : VirtualDubMod 1.5.10.2 (build 2540/release)
Writing library : VirtualDubMod build 2540/release

Video
ID : 0
Format : MPEG-4 Visual
Format profile : Advanced Simple@L5
Format settings, BVOP : 2
Format settings, QPel : No
Format settings, GMC : No warppoints
Format settings, Matrix : Default (MPEG)
Codec ID : XVID
Codec ID/Hint : XviD
Duration : 1h 46mn
Bit rate : 1 567 Kbps
Width : 720 pixels
Height : 400 pixels
Display aspect ratio : 16:9
Frame rate : 23.976 fps
Color space : YUV
Chroma subsampling : 4:2:0
Bit depth : 8 bits
Scan type : Progressive
Compression mode : Lossy
Bits/(Pixel*Frame) : 0.227
Stream size : 1.17 GiB (80%)
Writing library : XviD 1.2.1 (UTC 2008-12-04)

Audio
ID : 1
Format : AC-3
Format/Info : Audio Coding 3
Mode extension : CM (complete main)
Codec ID : 2000
Duration : 1h 46mn
Bit rate mode : Constant
Bit rate : 384 Kbps
Channel(s) : 6 channels
Channel positions : Front: L C R, Side: L R, LFE
Sampling rate : 48.0 KHz
Bit depth : 16 bits
Compression mode : Lossy
Stream size : 293 MiB (20%)
Alignment : Split accross interleaves
Interleave, duration : 42 ms (1.00 video frame)
Interleave, preload duration : 500 ms

[/code]
pb.wtf



Скачать Теорема Зеро через торрент http://i5.imageban.ru/out/2014/09/30/aca99c3759ffd3a57da427a9be2e8faf.jpg Скачать фильм Теорема Зеро через торрент бесплантно в хорошем качестве Описание: Эксцентричный компьютерный гений Коэн Лет бьется над неразрешимой теоремой. Благодаря костюму для виртуальной реальности, ... 9.6 10 25
Info! Золотая раздача, скачанное не засчитывается.
Торрент: Зарегистрирован [2014-09-29 23:53] · скачан: 890 раз
Статус: √ проверено
Размер: 1.46 GB
Как cкачать? Как скачать Теорема Зеро через торрент | qTorrent

% Раздел Тема Автор DL S | L
Фильмы с авторской озвучкой [ 1.45 GB ] Теорема Зеро / The Zero Theorem [2013 HDRip] [AVO] killermax2013 Скачать
1 | 0
Фильмы [HD 720p, 1080p] (Хороший звук DUB, MVO) [ 6.69 GB ] Теорема Зеро / The Zero Theorem [2013 Румыния BDRip 720p] + AVO [Ю.Сербин] +Original + Subs от R.G. PiratFilms Messa-fan Скачать
1 | 0
Фильмы (Blu-ray, BD-Remux, HDDVD) [ 22.73 GB ] Теорема Зеро / The Zero Theorem [2013 Blu-Ray Remux ] Ворон Скачать
1 | 0


Последний раз редактировалось: _KaisiK_ (2014-12-11 14:19), всего редактировалось 1 раз

28-11-2019 20:33  

Отключить всю рекламу на сайте

30-09-2014 16:35 Теорема Зеро Скачать торрент  

фильм отличный, но перевод этот не понравился. Теорема Зеро / The Zero Theorem этот перевод намного лучше. здесь показана наивысшая степень развития человека и дьявол решил доказать богу или наоборот. сами думайте и решайте в чём тут закавыка.pb.wtf



02-10-2014 20:03 Теорема Зеро Скачать торрент  

шлакpb.wtf



17-12-2015 19:28 Теорема Зеро Скачать торрент  

Фильм класс! Сама идея плюс картинка! Заброшенный храм с его витражами смотрится здорово!pb.wtf



    Дорогой пользователь! Огромная просьба, поблагодарите релизера, оцените раздачу и оставьте свои комментарий, если Вы скачали Теорема Зеро через торрент бесплатно! Внесите свою лепту в развитие PiratBit!
    Комментировать посты могут только пользователи прошедшие не сложную регистрацию
    Показать сообщения:    

    Теорема Зеро через торрент
    Скачать бесплатно Теорема Зеро
    Теорема Зеро скачать торрент
    Теорема Зеро смотреть онлайн
    Cкачать фильм Теорема Зеро бесплатно
    Теорема Зеро скачать торрент в хорошем качестве
    Теорема Зеро смотреть онлайн бесплатно в хорошем качестве


    Вы не можете начинать темы
    Вы не можете отвечать на сообщения
    Вы не можете редактировать свои сообщения
    Вы не можете удалять свои сообщения
    Вы не можете голосовать в опросах
    Вы не можете прикреплять файлы к сообщениям
    Вы можете скачивать файлы