MEGA NEWS Получи личный уникальный адрес сайта и защити себя от блокировок. Внимание количество ограничено!!!

iTunes

1+1

iTunes

мы

iTunes

1

iTunes

Чернобыль

iTunes

Ральф против интернета

Лицензия

ПШазам

Лицензия

Игра престолов

Лицензия

30
pack

ВАЖНО

!!Акция!!

Alien_RageХит недели

RePack

Resident Evil 21

ИГРА 18+

pack

RePack

Metro:Exodus

!!Акция!!

Alien_Rage

RePack

fifa19

RePack

Assassins Creed: Odyssey

RePack

NEED FOR SPEED™ PAYBACK

3 сезон

9 сезон

Бесстыжие 9 сезон

Все сериалы

все сериалы на PB.wtf

RePack

FAR CRY 5
Ребята, катастрофически не хватает 1900р. для оплаты серверов за АВГУСТ (всвязи с блокировками трафик упал в 3 раза), 1-2р., выручайте.
  

Снайпер / Sniper (Луис Ллоса / Luis Llosa) [1992, США, Перу, боевик, триллер, драма, HDTVRip1080p] MVO+AVO+ENG pb.wtf

Снайпер через торрент pb.wtf

Размер: 7.95 GB | Добавлен: 5 лет назад | Торрент скачан:108 раз
Скачать  

30-09-2014 01:27 Снайпер Скачать торрент  

Снайпер / Sniper
«Один выстрел - одна цель»


  • Год выпуска: 1992
  • Страна: США, Перу
  • Жанр: боевик, триллер, драма
  • Продолжительность: 01:39:00
  • Перевод: Профессиональный многоголосый закадровый
  • Субтитры: русские (MVO),русские (Д. Пучков aka Goblin), английские
  • Режиссер: Луис Ллоса / Luis Llosa
  • В ролях:

    Том Беренджер (Thomas Beckett), Билли Зейн (Richard Miller), Дж.Т. Уолш (Chester Van Damme), Аден Янг (Doug Papich), Кен Рэдли (El Cirujano), Рейнальдо Аренас (Cacique), Гэри Суонсон (NSC Officer in Washington), Хэнк Гаррет (Admiral in Washington), Фредерик Миральотта (General Miguel Alavarez), Ванесса Стил (Mrs. Alvarez), Карлос Алварез (Raul Ochoa), Тайлер Коппин (Ripoly)

  • Описание:
    Два снайпера. Том Бекет и Ричард Миллер, получают смертельно опасное задание: в джунглях Центральной Америки найти базу колумбийских наркодельцов, проникнуть внутрь и ликвидировать главаря. Возможна только одна попытка, один выстрел.
  • Рейтинг:



  • Качество: HDTVRip1080p
  • Формат: :MKV
  • Видео кодек: AVC
  • Аудио кодек: AC3
  • Видео: 1920x1080 (16:9), 9798 kbps, 23,976 fps, 0,197 bpp
  • Аудио №1: русский / 5.1 / 48 kHz / 448 kbps / 16 bit MVO
  • Аудио №2: русский / 3 / 48 kHz / 224 kbps / 16 bit AVO Д. Пучков aka Goblin
  • Аудио №3: русский / 2.0 / 48 kHz / 192 kbps / 16 bit AVO А. Гаврилов
  • Аудио №4: русский / 2.0 / 48 kHz / 192 kbps / 16 bit AVO Л. Володарский
  • Аудио №5: английский / 2.0 / 48 kHz / 640 kbps / 16 bit
  • Релиз от: GEKADOL

    Код:

    General
    Unique ID                                : 179535210411113696384407300106076878551 (0x87113949A9CDBD2BB2F07FA53DB0F6D7)
    Complete name                            : I:\Sniper(1993)1080p.F-HD.mkv
    Format                                   : Matroska
    Format version                           : Version 4 / Version 2
    File size                                : 7.95 GiB
    Duration                                 : 1h 39mn
    Overall bit rate                         : 11.5 Mbps
    Encoded date                             : UTC 2013-08-28 05:16:56
    Writing application                      : mkvmerge v6.2.0 ('Promised Land') built on Apr 28 2013 12:22:01
    Writing library                          : libebml v1.3.0 + libmatroska v1.4.0

    Video
    ID                                       : 1
    Format                                   : AVC
    Format/Info                              : Advanced Video Codec
    Format profile                           : High@L4.1
    Format settings, CABAC                   : Yes
    Format settings, ReFrames                : 4 frames
    Codec ID                                 : V_MPEG4/ISO/AVC
    Duration                                 : 1h 39mn
    Bit rate                                 : 9 798 Kbps
    Width                                    : 1 920 pixels
    Height                                   : 1 080 pixels
    Display aspect ratio                     : 16:9
    Frame rate                               : 23.976 fps
    Color space                              : YUV
    Chroma subsampling                       : 4:2:0
    Bit depth                                : 8 bits
    Scan type                                : Progressive
    Bits/(Pixel*Frame)                       : 0.197
    Stream size                              : 6.62 GiB (83%)
    Writing library                          : x264 core 138 r2358kMod 9e941d1
    Encoding settings                        : cabac=1 / ref=4 / deblock=1:-2:-2 / analyse=0x3:0x113 / me=umh / subme=10 / psy=1 / fade_compensate=0.00 / psy_rd=1.00:0.00 / mixed_ref=1 / me_range=32 / chroma_me=1 / trellis=2 / 8x8dct=1 / cqm=0 / deadzone=21,11 / fast_pskip=0 / chroma_qp_offset=-2 / threads=6 / lookahead_threads=1 / sliced_threads=0 / nr=0 / decimate=1 / interlaced=0 / bluray_compat=0 / constrained_intra=0 / bframes=8 / b_pyramid=2 / b_adapt=2 / b_bias=0 / direct=3 / weightb=1 / open_gop=0 / weightp=2 / keyint=250 / keyint_min=23 / scenecut=40 / intra_refresh=0 / rc_lookahead=40 / rc=2pass / mbtree=0 / bitrate=9798 / ratetol=1.0 / qcomp=0.75 / qpmin=0 / qpmax=69 / qpstep=4 / cplxblur=20.0 / qblur=0.5 / vbv_maxrate=50000 / vbv_bufsize=62500 / nal_hrd=none / ip_ratio=1.40 / pb_ratio=1.30 / aq=1:0.80
    Language                                 : English
    Default                                  : Yes
    Forced                                   : No
    Matrix coefficients                      : BT.709-5, BT.1361, IEC 61966-2-4 709, SMPTE RP177

    Audio #1
    ID                                       : 2
    Format                                   : AC-3
    Format/Info                              : Audio Coding 3
    Mode extension                           : CM (complete main)
    Codec ID                                 : A_AC3
    Duration                                 : 1h 39mn
    Bit rate mode                            : Constant
    Bit rate                                 : 448 Kbps
    Channel(s)                               : 6 channels
    Channel positions                        : Front: L C R, Side: L R, LFE
    Sampling rate                            : 48.0 KHz
    Bit depth                                : 16 bits
    Compression mode                         : Lossy
    Stream size                              : 317 MiB (4%)
    Title                                    : MVO
    Language                                 : Russian
    Default                                  : Yes
    Forced                                   : No

    Audio #2
    ID                                       : 3
    Format                                   : AC-3
    Format/Info                              : Audio Coding 3
    Mode extension                           : CM (complete main)
    Codec ID                                 : A_AC3
    Duration                                 : 1h 39mn
    Bit rate mode                            : Constant
    Bit rate                                 : 224 Kbps
    Channel(s)                               : 3 channels
    Channel positions                        : Front: L C R
    Sampling rate                            : 48.0 KHz
    Bit depth                                : 16 bits
    Compression mode                         : Lossy
    Stream size                              : 159 MiB (2%)
    Title                                    : Авторский (одноголосый закадровый) Д. Пучков  aka Goblin
    Language                                 : Russian
    Default                                  : No
    Forced                                   : No

    Audio #3
    ID                                       : 4
    Format                                   : AC-3
    Format/Info                              : Audio Coding 3
    Mode extension                           : CM (complete main)
    Codec ID                                 : A_AC3
    Duration                                 : 1h 39mn
    Bit rate mode                            : Constant
    Bit rate                                 : 192 Kbps
    Channel(s)                               : 2 channels
    Channel positions                        : Front: L R
    Sampling rate                            : 48.0 KHz
    Bit depth                                : 16 bits
    Compression mode                         : Lossy
    Stream size                              : 136 MiB (2%)
    Title                                    : Авторский (одноголосый закадровый) А. Гаврилов
    Language                                 : Russian
    Default                                  : No
    Forced                                   : No

    Audio #4
    ID                                       : 5
    Format                                   : AC-3
    Format/Info                              : Audio Coding 3
    Mode extension                           : CM (complete main)
    Codec ID                                 : A_AC3
    Duration                                 : 1h 39mn
    Bit rate mode                            : Constant
    Bit rate                                 : 192 Kbps
    Channel(s)                               : 2 channels
    Channel positions                        : Front: L R
    Sampling rate                            : 48.0 KHz
    Bit depth                                : 16 bits
    Compression mode                         : Lossy
    Stream size                              : 136 MiB (2%)
    Title                                    : Авторский (одноголосый закадровый) Л. Володарский
    Language                                 : Russian
    Default                                  : No
    Forced                                   : No

    Audio #5
    ID                                       : 6
    Format                                   : AC-3
    Format/Info                              : Audio Coding 3
    Mode extension                           : CM (complete main)
    Codec ID                                 : A_AC3
    Duration                                 : 1h 39mn
    Bit rate mode                            : Constant
    Bit rate                                 : 640 Kbps
    Channel(s)                               : 2 channels
    Channel positions                        : Front: L R
    Sampling rate                            : 48.0 KHz
    Bit depth                                : 16 bits
    Compression mode                         : Lossy
    Stream size                              : 453 MiB (6%)
    Language                                 : English
    Default                                  : No
    Forced                                   : No

    Text #1
    ID                                       : 7
    Format                                   : UTF-8
    Codec ID                                 : S_TEXT/UTF8
    Codec ID/Info                            : UTF-8 Plain Text
    Title                                    : MVO
    Language                                 : Russian
    Default                                  : No
    Forced                                   : No

    Text #2
    ID                                       : 8
    Format                                   : UTF-8
    Codec ID                                 : S_TEXT/UTF8
    Codec ID/Info                            : UTF-8 Plain Text
    Title                                    : Д. Пучков  aka Goblin
    Language                                 : Russian
    Default                                  : No
    Forced                                   : No

    Text #3
    ID                                       : 9
    Format                                   : UTF-8
    Codec ID                                 : S_TEXT/UTF8
    Codec ID/Info                            : UTF-8 Plain Text
    Language                                 : English
    Default                                  : No
    Forced                                   : No


    Скриншоты:


    pb.wtf



  • Скачать Снайпер через торрент http://i66.fastpic.ru/big/2014/0930/c9/192cc68a6dd9ca1b4a6ef745d801c3c9.jpg Скачать фильм Снайпер через торрент бесплантно в хорошем качестве Описание: Два снайпера. Том Бекет и Ричард Миллер, получают смертельно опасное задание: в джунглях Центральной Америки найти базу ... 9.6 10 7
    Info! Золотая раздача, скачанное не засчитывается.
    Торрент: Зарегистрирован [2014-09-30 01:27] · скачан: 108 раз
    Статус: √ проверено
    Размер: 7.95 GB
    Как cкачать? Как скачать Снайпер через торрент | qTorrent

    % Раздел Тема Автор DL S | L
    Фильмы [HD 720p, 1080p] (Хороший звук DUB, MVO) [ 8.7 GB ] Снайпер / Sniper [1992 BDRip 720p от _denis_100 / NNNB] MVO + DVO + 6xAVO + Original + Sub _denis_100 Скачать
    1 | 0
    Фильмы [HD 720p, 1080p] (Хороший звук DUB, MVO) [ 13.44 GB ] Снайпер / American Sniper [2014 военный BDRip 1080p] 2xDub + MVO + AVO + Original + Sub от R.G. HD-Films Seedtank Скачать
    1 | 0


    >> Регистрируемся здесь <<






    Отзывы и комментарии о схеме читаем и пишем здесь: ---> Отзывы и комментарии о схеме

    Новые благодарочки в телеграм довольных пользователей:
    скриншот   скриншот   скриншот   скриншот   скриншот

    30-09-2014 03:56 Снайпер Скачать торрент  

    Супер-боевик! Лучший в своем жанре. Следующие части совсем не то.pb.wtf



    30-09-2014 11:48 Снайпер Скачать торрент  

    tiger1975 писал(а):

    Супер-боевик! Лучший в своем жанре. Следующие части совсем не то.

    Согласен на все 100!!!
    pb.wtf



      Дорогой пользователь! Огромная просьба, поблагодарите релизера, оцените раздачу и оставьте свои комментарий, если Вы скачали Снайпер через торрент бесплатно! Внесите свою лепту в развитие PiratBit!
      Комментировать посты могут только пользователи прошедшие не сложную регистрацию
      Показать сообщения:    

      Снайпер через торрент
      Скачать бесплатно Снайпер
      Снайпер скачать торрент
      Снайпер смотреть онлайн
      Cкачать фильм Снайпер бесплатно
      Снайпер скачать торрент в хорошем качестве
      Снайпер смотреть онлайн бесплатно в хорошем качестве


      Вы не можете начинать темы
      Вы не можете отвечать на сообщения
      Вы не можете редактировать свои сообщения
      Вы не можете удалять свои сообщения
      Вы не можете голосовать в опросах
      Вы не можете прикреплять файлы к сообщениям
      Вы можете скачивать файлы