Ссылка на приватное зеркало нашего сайта всего за 1$. Внимание количество ограничено!!!

2 сезон

iTunes

1 сезон

1

iTunes

iTunes

iTunes

1 сезон

RePack

30

ИГРА 18+

pack

ВАЖНО

!!Акция!!

Alien_RageХит недели

RePack

MK11
pack

Забери бонус

RePack

jed

!!Акция!!

Alien_Rage

RePack

fifa19

RePack

Assassins Creed: Odyssey

RePack

NEED FOR SPEED™ PAYBACK

4 сезон

9 сезон

Бесстыжие 9 сезон

Все сериалы

все сериалы на PB.wtf

RePack

FAR CRY 5
  

Во все тяжкие / Breaking Bad / сезон 1-5 (серии 1-62 из 62) (Адам Бернштейн) [2008-2013, Драма, Триллер, Криминал, BDRip-AVC] MVO (LostFilm) pb.wtf

Во все тяжкие через торрент pb.wtf

Качают: 2 [ 0 KB/s ]
Размер: 70.47 GB | Добавлен: 6 лет назад | Торрент скачан:2345 раз
Скачать  

30-09-2014 03:50 Во все тяжкие Скачать торрент  

Во все тяжкие / Breaking Bad (2008-2013)[сезон 1-5 , LostFilm , BDRip]

Во все тяжкие [сезон 1] / Breaking Bad [season 1]



Год выпуска: 2008-2009
Страна: США
Жанр: Драма, Триллер, Криминал
Продолжительность: ~00:48:00 серия
Перевод: Многоголосый закадровый, профессиональный - LostFilm
Вид субтитров: Вшитые отключаемые
Язык субтитров: Русский

Режиссер: Мишель Максвелл МакЛарен, Адам Бернштейн, Винс Гиллиган

В ролях: Брайан Крэнстон, Анна Ганн, Аарон Пол, Дин Норрис, Бетси Брандт, Ар Джей Митт



Описание: Школьный учитель химии Уолтер Уайт узнаёт, что болен раком лёгких. Учитывая сложное финансовое состояние дел семьи, а также перспективы, Уолтер решает заняться изготовлением метамфетамина. Для этого он привлекает своего бывшего ученика Джесси Пинкмана, когда-то исключённого из школы при активном содействии Уайта. Пинкман сам занимался «варкой мета», но накануне, в ходе рейда ОБН, он лишился подельника и лаборатории…

Качество: BDRip-AVC
Формат: mkv
Видео кодек: MPEG-4 AVC/H.264
Аудио кодек: AC3 5.1
Видео: 1024x576 , ~3619 Кбит/с , 23.976 fps
Аудио#1: AC3 5.1 , 384 Кбит/с , 48 kHz , 6 ch
General
Format : Matroska
Format version : Version 2
File size : 1.38 GiB
Duration : 48mn 11s
Overall bit rate : 4 085 Kbps
Movie name : Breaking Bad S01E05 BDRip
Encoded date : UTC 2013-12-27 15:42:38
Writing application : mkvmerge v6.6.0 ('The Edge Of The In Between') built on Dec 1 2013 17:55:00
Writing library : libebml v1.3.0 + libmatroska v1.4.1
Attachment : Yes / Yes / Yes / Yes / Yes
Video #1
ID : 1
Format : AVC
Format/Info : Advanced Video Codec
Format profile : High@L4.0
Format settings, CABAC : Yes
Format settings, ReFrames : 11 frames
Codec ID : V_MPEG4/ISO/AVC
Duration : 48mn 11s
Bit rate : 3 619 Kbps
Width : 1 024 pixels
Height : 576 pixels
Display aspect ratio : 16:9
Frame rate mode : Constant
Frame rate : 23.976 fps
Color space : YUV
Chroma subsampling : 4:2:0
Bit depth : 8 bits
Scan type : Progressive
Bits/(Pixel*Frame) : 0.256
Stream size : 1.22 GiB (89%)
Writing library : x264 core 104 r1698 c41b8f0
Encoding settings : cabac=1 / ref=11 / deblock=1:-2:-1 / analyse=0x3:0x133 / me=umh / subme=10 / psy=1 / psy_rd=1.00:0.15 / mixed_ref=1 / me_range=32 / chroma_me=1 / trellis=2 / 8x8dct=1 / cqm=0 / deadzone=21,11 / fast_pskip=0 / chroma_qp_offset=-3 / threads=6 / sliced_threads=0 / nr=0 / decimate=1 / interlaced=0 / constrained_intra=0 / bframes=9 / b_pyramid=2 / b_adapt=2 / b_bias=0 / direct=3 / weightb=1 / open_gop=0 / weightp=2 / keyint=250 / keyint_min=23 / scenecut=40 / intra_refresh=0 / rc_lookahead=120 / rc=crf / mbtree=1 / crf=20.3 / qcomp=0.70 / qpmin=10 / qpmax=51 / qpstep=4 / ip_ratio=1.40 / aq=1:1.00
Language : English
Default : Yes
Forced : No
Audio #2
ID : 2
Format : AC-3
Format/Info : Audio Coding 3
Mode extension : CM (complete main)
Format settings, Endianness : Big
Codec ID : A_AC3
Duration : 48mn 11s
Bit rate mode : Constant
Bit rate : 384 Kbps
Channel(s) : 6 channels
Channel positions : Front: L C R, Side: L R, LFE
Sampling rate : 48.0 KHz
Bit depth : 16 bits
Compression mode : Lossy
Stream size : 132 MiB (9%)
Title : MVO (LostFilm)
Language : Russian
Default : Yes
Forced : No


01. Pilot / Пилот
02. Cat's in the Bag.../ Кот уже в мешке...
03. ...And the Bag's in the River / А мешок уже в реке
04. Cancer Man / Раковый больной
05. Gray Matter / Серое вещество
06. Crazy Handful of Nothin'/ Блеф на пустой руке
07. A No-Rough-Stuff-Type Deal / Тихий бизнес без суеты и напрягов

Во все тяжкие [сезон 2] / Breaking Bad [season 2]



Год выпуска: 2009-2010
Страна: США
Жанр: Драма, Триллер, Криминал
Продолжительность: ~00:47:00 серия
Перевод: Многоголосый закадровый, профессиональный - LostFilm
Вид субтитров: Вшитые отключаемые
Язык субтитров: Русский

Режиссер: Мишель Максвелл МакЛарен, Адам Бернштейн, Винс Гиллиган

В ролях: Брайан Крэнстон, Анна Ганн, Аарон Пол, Дин Норрис, Бетси Брандт, Ар Джей Митт



Описание: Школьный учитель химии Уолтер Уайт узнаёт, что болен раком лёгких. Учитывая сложное финансовое состояние дел семьи, а также перспективы, Уолтер решает заняться изготовлением метамфетамина. Для этого он привлекает своего бывшего ученика Джесси Пинкмана, когда-то исключённого из школы при активном содействии Уайта. Пинкман сам занимался «варкой мета», но накануне, в ходе рейда ОБН, он лишился подельника и лаборатории…

Качество: BDRip-AVC
Формат: mkv
Видео кодек: MPEG-4 AVC/H.264
Аудио кодек: AC3 5.1
Видео: 1024x576 , ~3701 Кбит/с , 23.976 fps
Аудио#1: AC3 5.1 , 384 Кбит/с , 48 kHz , 6 ch
General
Format : Matroska
Format version : Version 2
File size : 1.50 GiB
Duration : 47mn 57s
Overall bit rate : 4 465 Kbps
Movie name : Breaking Bad S02E02 BDRip
Encoded date : UTC 2013-12-27 16:17:18
Writing application : mkvmerge v6.6.0 ('The Edge Of The In Between') built on Dec 1 2013 17:55:00
Writing library : libebml v1.3.0 + libmatroska v1.4.1
Attachment : Yes / Yes / Yes / Yes / Yes
Video #1
ID : 1
Format : AVC
Format/Info : Advanced Video Codec
Format profile : High@L4.0
Format settings, CABAC : Yes
Format settings, ReFrames : 11 frames
Codec ID : V_MPEG4/ISO/AVC
Duration : 47mn 57s
Bit rate : 3 993 Kbps
Width : 1 024 pixels
Height : 576 pixels
Display aspect ratio : 16:9
Frame rate mode : Constant
Frame rate : 23.976 fps
Color space : YUV
Chroma subsampling : 4:2:0
Bit depth : 8 bits
Scan type : Progressive
Bits/(Pixel*Frame) : 0.282
Stream size : 1.34 GiB (89%)
Writing library : x264 core 104 r1703 cd21d05
Encoding settings : cabac=1 / ref=11 / deblock=1:-2:-1 / analyse=0x3:0x133 / me=umh / subme=10 / psy=1 / psy_rd=1.00:0.15 / mixed_ref=1 / me_range=32 / chroma_me=1 / trellis=2 / 8x8dct=1 / cqm=0 / deadzone=21,11 / fast_pskip=1 / chroma_qp_offset=-3 / threads=6 / sliced_threads=0 / nr=0 / decimate=1 / interlaced=0 / constrained_intra=0 / bframes=9 / b_pyramid=2 / b_adapt=2 / b_bias=0 / direct=3 / weightb=1 / open_gop=0 / weightp=2 / keyint=250 / keyint_min=23 / scenecut=40 / intra_refresh=0 / rc_lookahead=120 / rc=crf / mbtree=1 / crf=19.8 / qcomp=0.70 / qpmin=10 / qpmax=51 / qpstep=4 / ip_ratio=1.40 / aq=1:1.00
Language : English
Default : Yes
Forced : No
Audio #2
ID : 2
Format : AC-3
Format/Info : Audio Coding 3
Mode extension : CM (complete main)
Format settings, Endianness : Big
Codec ID : A_AC3
Duration : 47mn 57s
Bit rate mode : Constant
Bit rate : 384 Kbps
Channel(s) : 6 channels
Channel positions : Front: L C R, Side: L R, LFE
Sampling rate : 48.0 KHz
Bit depth : 16 bits
Compression mode : Lossy
Stream size : 132 MiB (9%)
Title : MVO (LostFilm)
Language : Russian
Default : Yes
Forced : No


01. Seven Thirty-Seven / Семьсот тридцать семь
02. Grilled / Попандос
03. Bit by a Dead Bee / Укус мертвой пчелы
04. Down / На дне
05. Breakage / Бой товара
06. Peekaboo / Ку-ку
07. Negro Y Azul / Синий мет на черном рынке
08. Better Call Saul / Надо звонить Солу!
09. 4 Days Out / 4 дня на природе
10. Over / Всё
11. Mandala / Мандала
12. Phoenix / Феникс
13. ABQ / АБК

Во все тяжкие [сезон 3] / Breaking Bad [season 3]



Год выпуска: 2010-2011
Страна: США
Жанр: Драма, Триллер, Криминал
Продолжительность: ~00:47:00 серия
Перевод: Многоголосый закадровый, профессиональный - LostFilm
Вид субтитров: Вшитые отключаемые
Язык субтитров: Русский

Режиссер: Мишель Максвелл МакЛарен, Адам Бернштейн, Винс Гиллиган

В ролях: Брайан Крэнстон, Анна Ганн, Аарон Пол, Дин Норрис, Бетси Брандт, Ар Джей Митт



Описание: Школьный учитель химии Уолтер Уайт узнаёт, что болен раком лёгких. Учитывая сложное финансовое состояние дел семьи, а также перспективы, Уолтер решает заняться изготовлением метамфетамина. Для этого он привлекает своего бывшего ученика Джесси Пинкмана, когда-то исключённого из школы при активном содействии Уайта. Пинкман сам занимался «варкой мета», но накануне, в ходе рейда ОБН, он лишился подельника и лаборатории…

Качество: BDRip-AVC
Формат: mkv
Видео кодек: MPEG-4 AVC/H.264
Аудио кодек: AC3 5.1
Видео: 1024x576 , ~3489 Кбит/с , 23.976 fps
Аудио#1: AC3 5.1 , 384 Кбит/с , 48 kHz , 6 ch
General
Format : Matroska
Format version : Version 2
File size : 1.30 GiB
Duration : 47mn 13s
Overall bit rate : 3 951 Kbps
Movie name : Breaking Bad S03E03 BDRip
Encoded date : UTC 2013-12-27 22:24:03
Writing application : mkvmerge v6.6.0 ('The Edge Of The In Between') built on Dec 1 2013 17:55:00
Writing library : libebml v1.3.0 + libmatroska v1.4.1
Attachment : Yes / Yes / Yes / Yes / Yes / Yes
Video #1
ID : 1
Format : AVC
Format/Info : Advanced Video Codec
Format profile : High@L4.0
Format settings, CABAC : Yes
Format settings, ReFrames : 11 frames
Codec ID : V_MPEG4/ISO/AVC
Duration : 47mn 13s
Bit rate : 3 489 Kbps
Width : 1 024 pixels
Height : 576 pixels
Display aspect ratio : 16:9
Frame rate mode : Constant
Frame rate : 23.976 fps
Color space : YUV
Chroma subsampling : 4:2:0
Bit depth : 8 bits
Scan type : Progressive
Bits/(Pixel*Frame) : 0.247
Stream size : 1.15 GiB (88%)
Writing library : x264 core 116 r2057 0ba8a9c
Encoding settings : cabac=1 / ref=11 / deblock=1:-2:-2 / analyse=0x3:0x133 / me=umh / subme=10 / psy=1 / psy_rd=1.10:0.10 / mixed_ref=1 / me_range=48 / chroma_me=1 / trellis=2 / 8x8dct=1 / cqm=0 / deadzone=21,11 / fast_pskip=1 / chroma_qp_offset=-3 / threads=6 / sliced_threads=0 / nr=0 / decimate=1 / interlaced=0 / bluray_compat=0 / constrained_intra=0 / bframes=10 / b_pyramid=2 / b_adapt=2 / b_bias=0 / direct=1 / weightb=1 / open_gop=0 / weightp=2 / keyint=250 / keyint_min=23 / scenecut=40 / intra_refresh=0 / rc=crf / mbtree=0 / crf=19.5 / qcomp=0.70 / qpmin=0 / qpmax=69 / qpstep=4 / ip_ratio=1.40 / pb_ratio=1.20 / aq=1:1.00
Language : English
Default : Yes
Forced : No
Matrix coefficients : BT.709
Audio #2
ID : 2
Format : AC-3
Format/Info : Audio Coding 3
Mode extension : CM (complete main)
Format settings, Endianness : Big
Codec ID : A_AC3
Duration : 47mn 13s
Bit rate mode : Constant
Bit rate : 384 Kbps
Channel(s) : 6 channels
Channel positions : Front: L C R, Side: L R, LFE
Sampling rate : 48.0 KHz
Bit depth : 16 bits
Compression mode : Lossy
Stream size : 130 MiB (10%)
Title : MVO (LostFilm)
Language : Russian
Default : Yes
Forced : No
Text #3
ID : 3
Format : ASS
Codec ID : S_TEXT/ASS
Codec ID/Info : Advanced Sub Station Alpha
Compression mode : Lossless
Title : Forced
Language : Russian
Default : Yes
Forced : No


01. No Mas / Баста
02. Caballo sin nombre / Конь без клички
03. I.F.T. / Я.Т.Т.
04. Green Light / Зеленый цвет
05. Mas / По новой
06. Sunset / На закате
07. One Minute / Одна минута
08. I See You / Я тебя вижу
09. Kafkaesque / По-кафкиански
10. Fly / Муха
11. Abiquiu / Абикиу
12. Half Measures / Полумеры
13. Full Measure / Полная мера


Во все тяжкие [сезон 4] / Breaking Bad [season 4]



Год выпуска: 2011-2012
Страна: США
Жанр: Драма, Триллер, Криминал
Продолжительность: ~00:47:00 серия
Перевод: Многоголосый закадровый, профессиональный - LostFilm
Вид субтитров: Вшитые отключаемые
Язык субтитров: Русский

Режиссер: Мишель Максвелл МакЛарен, Адам Бернштейн, Винс Гиллиган

В ролях: Брайан Крэнстон, Анна Ганн, Аарон Пол, Дин Норрис, Бетси Брандт, Ар Джей Митт



Описание: Школьный учитель химии Уолтер Уайт узнаёт, что болен раком лёгких. Учитывая сложное финансовое состояние дел семьи, а также перспективы, Уолтер решает заняться изготовлением метамфетамина. Для этого он привлекает своего бывшего ученика Джесси Пинкмана, когда-то исключённого из школы при активном содействии Уайта. Пинкман сам занимался «варкой мета», но накануне, в ходе рейда ОБН, он лишился подельника и лаборатории…

Качество: BDRip-AVC
Формат: mkv
Видео кодек: MPEG-4 AVC/H.264
Аудио кодек: AC3 5.1
Видео: 1024x576 , ~2205 Кбит/с , 23.976 fps
Аудио#1: AC3 5.1 , 384 Кбит/с , 48 kHz , 6 ch
General
Format : Matroska
Format version : Version 2
File size : 807 MiB
Duration : 46mn 57s
Overall bit rate : 2 402 Kbps
Movie name : Breaking Bad S04E11 BDRip
Encoded date : UTC 2013-12-27 23:27:52
Writing application : mkvmerge v6.6.0 ('The Edge Of The In Between') built on Dec 1 2013 17:55:00
Writing library : libebml v1.3.0 + libmatroska v1.4.1
Attachment : Yes / Yes / Yes / Yes / Yes / Yes / Yes / Yes / Yes
Video #1
ID : 1
Format : AVC
Format/Info : Advanced Video Codec
Format profile : High@L4.0
Format settings, CABAC : Yes
Format settings, ReFrames : 11 frames
Codec ID : V_MPEG4/ISO/AVC
Duration : 46mn 57s
Bit rate : 1 970 Kbps
Width : 1 024 pixels
Height : 576 pixels
Display aspect ratio : 16:9
Frame rate mode : Constant
Frame rate : 23.976 fps
Color space : YUV
Chroma subsampling : 4:2:0
Bit depth : 8 bits
Scan type : Progressive
Bits/(Pixel*Frame) : 0.139
Stream size : 662 MiB (82%)
Writing library : x264 core 125 r2208kMod d9d2288
Encoding settings : cabac=1 / ref=11 / deblock=1:-3:-2 / analyse=0x3:0x133 / me=umh / subme=11 / psy=1 / fade_compensate=0.00 / psy_rd=1.10:0.10 / mixed_ref=1 / me_range=48 / chroma_me=1 / trellis=2 / 8x8dct=1 / cqm=0 / deadzone=21,11 / fast_pskip=0 / chroma_qp_offset=-3 / threads=6 / lookahead_threads=1 / sliced_threads=0 / nr=0 / decimate=1 / interlaced=0 / bluray_compat=0 / constrained_intra=0 / bframes=10 / b_pyramid=2 / b_adapt=2 / b_bias=0 / direct=1 / weightb=1 / open_gop=0 / weightp=2 / keyint=250 / keyint_min=23 / scenecut=40 / intra_refresh=0 / rc=crf / mbtree=0 / crf=19.0000 / qcomp=0.65 / qpmin=0 / qpmax=69 / qpstep=4 / ip_ratio=1.40 / pb_ratio=1.20 / aq=1:0.90
Language : English
Default : Yes
Forced : No
Matrix coefficients : BT.709
Audio #2
ID : 2
Format : AC-3
Format/Info : Audio Coding 3
Mode extension : CM (complete main)
Format settings, Endianness : Big
Codec ID : A_AC3
Duration : 46mn 57s
Bit rate mode : Constant
Bit rate : 384 Kbps
Channel(s) : 6 channels
Channel positions : Front: L C R, Side: L R, LFE
Sampling rate : 48.0 KHz
Bit depth : 16 bits
Compression mode : Lossy
Stream size : 129 MiB (16%)
Title : MVO (LostFilm)
Language : Russian
Default : Yes
Forced : No
Text #3
ID : 3
Format : ASS
Codec ID : S_TEXT/ASS
Codec ID/Info : Advanced Sub Station Alpha
Compression mode : Lossless
Title : Forced
Language : Russian
Default : Yes
Forced : No


01. Box Cutter / Канцелярский нож
02. Thirty-Eight Snub / Тридцать восьмой, курносый
03. Open House / День открытых дверей
04. Bullet Points / Ключевые моменты
05. Shotgun / Боец
06. Cornered / В углу
07. Problem Dog / Проблемный пёс
08. Hermanos / Братья
09. Bug / Жучок
10. Salud
11. Crawl Space / Подпол
12. End Times / Конец света
13. Face Off / Кто кого


Во все тяжкие [сезон 5] / Breaking Bad [season 5]



Год выпуска: 2012-2013
Страна: США
Жанр: Драма, Триллер, Криминал
Продолжительность: ~00:47:00 серия
Перевод: Многоголосый закадровый, профессиональный - LostFilm
Вид субтитров: Вшитые отключаемые
Язык субтитров: Русский

Режиссер: Мишель Максвелл МакЛарен, Адам Бернштейн, Винс Гиллиган

В ролях: Брайан Крэнстон, Анна Ганн, Аарон Пол, Дин Норрис, Бетси Брандт, Ар Джей Митт



Описание: Школьный учитель химии Уолтер Уайт узнаёт, что болен раком лёгких. Учитывая сложное финансовое состояние дел семьи, а также перспективы, Уолтер решает заняться изготовлением метамфетамина. Для этого он привлекает своего бывшего ученика Джесси Пинкмана, когда-то исключённого из школы при активном содействии Уайта. Пинкман сам занимался «варкой мета», но накануне, в ходе рейда ОБН, он лишился подельника и лаборатории…

Качество: BDRip-AVC
Формат: mkv
Видео кодек: MPEG-4 AVC/H.264
Аудио кодек: AC3 5.1
Видео: 1024x576 , ~3324 Кбит/с , 23.976 fps
Аудио#1: AC3 5.1 , 384 Кбит/с , 48 kHz , 6 ch
General
Format : Matroska
Format version : Version 2
File size : 1.18 GiB
Duration : 47mn 13s
Overall bit rate : 3 584 Kbps
Movie name : Breaking Bad S05E02 BDRip
Encoded date : UTC 2013-12-27 14:24:31
Writing application : mkvmerge v6.6.0 ('The Edge Of The In Between') built on Dec 1 2013 17:55:00
Writing library : libebml v1.3.0 + libmatroska v1.4.1
Video #1
ID : 1
Format : AVC
Format/Info : Advanced Video Codec
Format profile : High@L4.1
Format settings, CABAC : Yes
Format settings, ReFrames : 4 frames
Codec ID : V_MPEG4/ISO/AVC
Duration : 47mn 13s
Bit rate : 3 200 Kbps
Width : 1 024 pixels
Height : 576 pixels
Display aspect ratio : 16:9
Frame rate mode : Constant
Frame rate : 23.976 fps
Color space : YUV
Chroma subsampling : 4:2:0
Bit depth : 8 bits
Scan type : Progressive
Bits/(Pixel*Frame) : 0.226
Stream size : 1.03 GiB (87%)
Writing library : x264 core 125 r2200 999b753
Encoding settings : cabac=1 / ref=4 / deblock=1:-2:-2 / analyse=0x3:0x133 / me=umh / subme=10 / psy=1 / psy_rd=1.00:0.10 / mixed_ref=1 / me_range=32 / chroma_me=1 / trellis=2 / 8x8dct=1 / cqm=0 / deadzone=21,11 / fast_pskip=0 / chroma_qp_offset=-3 / threads=3 / lookahead_threads=1 / sliced_threads=0 / nr=0 / decimate=0 / interlaced=0 / bluray_compat=0 / constrained_intra=0 / bframes=7 / b_pyramid=2 / b_adapt=2 / b_bias=0 / direct=3 / weightb=1 / open_gop=0 / weightp=2 / keyint=240 / keyint_min=23 / scenecut=40 / intra_refresh=0 / rc_lookahead=60 / rc=2pass / mbtree=1 / bitrate=3200 / ratetol=1.0 / qcomp=0.60 / qpmin=0 / qpmax=69 / qpstep=4 / cplxblur=20.0 / qblur=0.5 / ip_ratio=1.40 / aq=1:1.00
Language : English
Default : Yes
Forced : No
Audio #2
ID : 2
Format : AC-3
Format/Info : Audio Coding 3
Mode extension : CM (complete main)
Format settings, Endianness : Big
Codec ID : A_AC3
Duration : 47mn 13s
Bit rate mode : Constant
Bit rate : 384 Kbps
Channel(s) : 6 channels
Channel positions : Front: L C R, Side: L R, LFE
Sampling rate : 48.0 KHz
Bit depth : 16 bits
Compression mode : Lossy
Stream size : 130 MiB (11%)
Title : MVO (LostFilm)
Language : Russian
Default : Yes
Forced : No


01. Живи свободным или умри / Live Free or Die
02. Мадригал / Madrigal
03. Опасные условия / Hazard Pay
04. Пятьдесят один / Fifty-One
05. Мёртвый груз / Dead Freight
06. Выкуп / Buyout
07. Произнеси моё имя / Say My Name
08. Летящий над всем / Gliding Over All
09. Кровавые деньги / Blood Money
10. Зарытое / Buried
11. Признания / Confessions
12. Бешеный пёс / Rabid Dog
13. Тохаджили / To'hajiilee
14. Озимандия / Ozymandias
15. Гранитный штат / Granite State
16. Фелина / Felina



pb.wtf



Скачать Во все тяжкие через торрент http://pic.kartinco.top/images/7/vbggk.jpg Скачать фильм Во все тяжкие через торрент бесплантно в хорошем качестве Описание: Школьный учитель химии Уолтер Уайт узнаёт, что болен раком лёгких. Учитывая сложное финансовое состояние дел семьи, а также ... 9.9 10 100
Info! Золотая раздача, скачанное не засчитывается.
Торрент: Зарегистрирован [2014-09-30 03:50] · скачан: 2 345 раз
Статус: √ проверено
Размер: 70.47 GB
Как cкачать? Как скачать Во все тяжкие через торрент | qTorrent

% Раздел Тема Автор DL S | L
Во все тяжкие [ 65.18 GB ] Во все тяжкие / Breaking Bad / Сезон: 1-5 / Серии 1-62 из 62 [2008-2013 BDRip 1080p] killermax2013 Скачать
4 | 2
Во все тяжкие [ 253.45 GB ] Во все тяжкие / Breaking Bad / Сезон: 1-5 / Серии: 1-62 из 62 [2008-2013 BDRip 1080p] DVO [Кубик в Кубе] bober100 Скачать
1 | 0
Во все тяжкие [ 46.61 GB ] Во все тяжкие / Breaking Bad / Сезон: 1-5 / Серии 1-62 [2008-2013 BDRip] [DVO] killermax2013 Скачать
5 | 2
Во все тяжкие [ 28.91 GB ] Во все тяжкие [1-5 сезоны] / Breaking Bad [2008-2013 WEB-DLRip MVO LostFilm] mechanic2020 Скачать
2 | 0
Во все тяжкие [ 18.64 GB ] Во все тяжкие / Breaking Bad / Сезон: 5 / Серии 1-16 [2012-2013 WEB-DLRip-AVC 720p ] MVO Ворон Скачать
1 | 0


Последний раз редактировалось: AARRSSEENN (2014-10-02 14:47), всего редактировалось 8 раз(а)

28-11-2019 20:33  

Отключить всю рекламу на сайте

30-09-2014 04:29 Во все тяжкие Скачать торрент  

BUDDAA писал(а):

На раздачу то не желаешь встать?

У меня в торренте ещё проверяетсяpb.wtf



30-09-2014 14:38 Во все тяжкие Скачать торрент  

Спасибо за релиз!! Такой размер очень долго проверяется!!pb.wtf



30-09-2014 22:05 Во все тяжкие Скачать торрент  

AARRSSEENN, спасибо за раздачу. Всё ни как не решался посмотреть этот сериал - пойду в загул на трое суток с пятью сезонами "Во все тяжкие". Еще раз спасибо, на раздаче останусь на пару месяцев pb.wtf



02-10-2014 15:51 Во все тяжкие Скачать торрент  

самый лучший сериал от LostFilm !!! Просмотрел на одном дыхании ! Очень впечатляюще ! Спасибо за раздачу старина !pb.wtf



13-11-2014 15:34 Во все тяжкие Скачать торрент  

AARRSSEENN, как включить субтитры?pb.wtf



15-04-2015 18:24 Во все тяжкие Скачать торрент  

на 99.9 встало,по какой причине?pb.wtf



15-04-2015 19:11 Во все тяжкие Скачать торрент  

Kонь писал(а):

Спасибо за качество, а то Лосты у себя на сайте первые сезоны только в 480 оставили. А сериал Топовый, на ряду с Игрой престолов, Спартаком, Декстером...

что декстера что спартака не смотрел)))pb.wtf



16-04-2015 05:14 Во все тяжкие Скачать торрент  

722039 писал(а):

на 99.9 встало,по какой причине?

всё ок,докачалось)pb.wtf



02-05-2015 23:55 Во все тяжкие Скачать торрент  

Спасибо, сериал поразил! Особенно концовка шикарна и актёры молодцы pb.wtf



03-08-2017 11:26 Во все тяжкие Скачать торрент  

Нелохой сериальчик. Скайлер тока всё портит...тпpb.wtf



26-09-2017 19:24 Во все тяжкие Скачать торрент  

Сериал харош. ОЧень сильная драматическая и психологическая составляющие. Интересно будет всем несмотря на явный жанр "криминал", очень много отсылок к драме, самокопания, семейного микроклимата. Сериал - это чаще несерьезно, Во все тяжкие - это очень серьезно, хотя есть пару вопросов к сценаристам, все очень хорошо..pb.wtf



12-03-2018 17:53 Во все тяжкие Скачать торрент  

Лучший сериал что я видел,точнее моногосерийный фильм.pb.wtf



    Дорогой пользователь! Огромная просьба, поблагодарите релизера, оцените раздачу и оставьте свои комментарий, если Вы скачали Во все тяжкие через торрент бесплатно! Внесите свою лепту в развитие PiratBit!
    Комментировать посты могут только пользователи прошедшие не сложную регистрацию
    Показать сообщения:    

    Во все тяжкие через торрент
    Скачать бесплатно Во все тяжкие
    Во все тяжкие скачать торрент
    Во все тяжкие смотреть онлайн
    Cкачать фильм Во все тяжкие бесплатно
    Во все тяжкие скачать торрент в хорошем качестве
    Во все тяжкие смотреть онлайн бесплатно в хорошем качестве


    Вы не можете начинать темы
    Вы не можете отвечать на сообщения
    Вы не можете редактировать свои сообщения
    Вы не можете удалять свои сообщения
    Вы не можете голосовать в опросах
    Вы не можете прикреплять файлы к сообщениям
    Вы можете скачивать файлы