1 сезон

3 сезон

iTunes

1

Line

MVO

iTunes

13

1 сезон

RePack

30

Deluxe

pack

Лицензия

ВАЖНО

ИГРА 18+

pack

RePack

MK11

RePack

jed

RePack

fifa19

RePack

RDR2

RePack

NEED FOR SPEED™ PAYBACK

4 сезон

9 сезон

Бесстыжие 9 сезон

Все сериалы

все сериалы на PB.wtf

RePack

FAR CRY 5

Anonymous, добрый вечер, мы катастрофически не успеваем собрать деньги на оплату серверов, помогите нам пожалуйста 5,10,15р., для нас важна любая помощь . В качестве благодарности мы отключим Вам всю рекламу на сайте (укажите свой ник в строку Ваше имя)!

×
  
Magnet ссылка

Любовь в квадрате / Des gens qui s'embrassent (Даниель Томпсон / Danièle Thompson) [2013, драма, комедия, DVD5] R5 pb.wtf

Любовь в квадрате через торрент pb.wtf

Размер: 4.29 GB | Добавлен: 6 лет 9 мес. назад | Торрент скачан:20 раз
Скачать  

30-09-2014 07:14 Любовь в квадрате Скачать торрент  


Любовь в квадрате / Des gens qui s'embrassent
Страна: Франция, Бельгия
Студия: Canal+ [fr], Ciné, G Films, Le Tax Shelter du Gouvernement Fédéral de Belgique, Pathé, TF1 Films Production, uFilm
Жанр: драма, комедия
Год выпуска: 2013
Мировая премьера: 22 марта 2013
Дата выхода DVD: 30 сентября 2014
Продолжительность: 01:36:17
Перевод: Профессиональный (многоголосый закадровый) [Лицензия]
Cубтитры: нет
Оригинальная аудиодорожка: нет
Режиссер: Даниель Томпсон / Danièle Thompson
В ролях: Эрик Элмоснино, Лу де Лааж, Кад Мерад, Клара Понсо, Макс Бублиль, Моника Беллуччи, Иври Гитлис, Валери Боннетон, Алексис Михалик, Кристиан Эк
Описание: Похороны жены Зефа совпадают с церемонией свадьбы дочери Рони! Это неожиданное событие обостряет конфликт между двумя братьями, которых и так разделяет всё: профессии, женщины, монашество одного и жизнерадостность другого: всё, кроме их старого кутежника-отца и двух дочерей, обожающих друг друга. Столкновения, недоразумения и предательства, происходящие между Лондоном, Парижем, Сан-Тропе и Нью-Йорком, подрывают отношения семьи, но благодаря этим спорами и примирениям появляется история большой любви… а может быть, даже две истории.
Бонусы: Смотрите на DVD

Релиз группы:
Качество: DVD5 R5
Формат: DVD-Video
Видео кодек: MPEG2
Аудио кодек: AC3
Видео: PAL 16:9 (720x576(0.577)) MPEG Video, 25,000 кадр/сек, 5985 Кбит/сек
Аудио: Russian (Dolby AC3, 6 ch) 384 Кбит/сек, 48,0 КГц



Title: Ljubov.v.kvadrate.2013.DVD5
Size: 4.29 Gb ( 4 502 658,00 KBytes ) - DVD-5
Enabled regions: 1, 2, 3, 4, 5, 6, 7, 8

VTS_01 :
Play Length: 01:36:17
Video: PAL 16:9 (720x576) VBR, Auto Letterboxed
Audio:
Russian (Dolby AC3, 6 ch)

VTS_02 :
Play Length: 00:07:53
Video: PAL 16:9 (720x576) VBR, Auto Letterboxed
Audio:
Not specified (Dolby AC3, 2 ch)

* Menus Information *

VIDEO_TS Menu
Video:
PAL 16:9 (720x576) VBR
Auto Pan&Scan
Audio:
Not specified (Dolby AC3, 2 ch)
Russian Language Unit :
Title Menu

VTS_01 Menu
Video:
PAL 16:9 (720x576) VBR
Auto Pan&Scan
Audio:
Not specified (Dolby AC3, 6 ch)
Russian Language Unit :
Root Menu
Chapter (PTT) Menu

VTS_02 Menu
Video:
NTSC 4:3 (720x480) VBR
Auto Pan&Scan, Auto Letterboxed
Russian Language Unit :
Root Menu
Общее
Полное имя : F:\Новинки 2014\Ljubov.v.kvadrate.2013.DVD5\VIDEO_TS\VTS_01_1.VOB
Формат : MPEG-PS
Размер файла : 1024 Мбайт
Продолжительность : 22 м.
Режим общего битрейта : Переменный
Общий поток : 6498 Кбит/сек

Видео
Идентификатор : 224 (0xE0)
Формат : MPEG Video
Версия формата : Version 2
Профиль формата : Main@Main
Параметр BVOP формата : Да
Параметр матрицы формата : Выборочная
Параметр GOP формата : M=3, N=12
Продолжительность : 22 м.
Вид битрейта : Переменный
Битрейт : 5985 Кбит/сек
Максимальный битрейт : 9000 Кбит/сек
Ширина : 720 пикселей
Высота : 576 пикселей
Соотношение сторон : 16:9
Частота кадров : 25,000 кадров/сек
Стандарт вещания : PAL
Цветовое пространство : YUV
Субдискретизация насыщенности : 4:2:0
Битовая глубина : 8 бит
Тип развёртки : Прогрессивная
Порядок развёртки : Верхнее поле первое
Метод сжатия : С потерями
Бит/(Пиксели*Кадры) : 0.577
Временной код первого кадра : 01:00:00:00
Оригинал временного кода : Group of pictures header
Размер потока : 943 Мбайт (92%)

Аудио
Идентификатор : 189 (0xBD)-128 (0x80)
Формат : AC-3
Формат/Информация : Audio Coding 3
Расширение режима : CM (complete main)
Параметр Endianness формата : Big
Режим смешивания : DVD-Video
Продолжительность : 22 м.
Вид битрейта : Постоянный
Битрейт : 384 Кбит/сек
Каналы : 6 каналов
Расположение каналов : Front: L C R, Side: L R, LFE
Частота : 48,0 КГц
Битовая глубина : 16 бит
Метод сжатия : С потерями
Размер потока : 60,5 Мбайт (6%)










pb.wtf



Скачать Любовь в квадрате через торрент http://i66.fastpic.ru/big/2014/0930/8a/06992ca6d08e29c6f4cdf312663f998a.jpg Скачать фильм Любовь в квадрате через торрент бесплантно в хорошем качестве Описание: Похороны жены Зефа совпадают с церемонией свадьбы дочери Рони! Это неожиданное событие обостряет конфликт между двумя братьями, ... 10 10 2
Info! Золотая раздача, скачанное не засчитывается.
Торрент: Зарегистрирован [2014-09-30 07:14] · скачан: 20 раз
Статус: √ проверено
Размер: 4.29 GB
Как cкачать? Как скачать Любовь в квадрате через торрент | UTorrent

28-11-2019 20:33  

Отключить всю рекламу на сайте

    Дорогой пользователь! Огромная просьба, поблагодарите релизера, оцените раздачу и оставьте свои комментарий, если Вы скачали Любовь в квадрате через торрент бесплатно! Внесите свою лепту в развитие PiratBit!
    Комментировать посты могут только пользователи прошедшие не сложную регистрацию
    Показать сообщения:    

    Любовь в квадрате через торрент
    Скачать бесплатно Любовь в квадрате
    Любовь в квадрате скачать торрент
    Любовь в квадрате смотреть онлайн
    Cкачать фильм Любовь в квадрате бесплатно
    Любовь в квадрате скачать торрент в хорошем качестве
    Любовь в квадрате смотреть онлайн бесплатно в хорошем качестве


    Вы не можете начинать темы
    Вы не можете отвечать на сообщения
    Вы не можете редактировать свои сообщения
    Вы не можете удалять свои сообщения
    Вы не можете голосовать в опросах
    Вы не можете прикреплять файлы к сообщениям
    Вы можете скачивать файлы