Ссылка на приватное зеркало всего за 1$. Внимание количество ограничено!!!

iTunes

iTunes

iTunes

1

iTunes

iTunes

iTunes

iTunes

iTunes

30
pack

$ от Little Big

ВАЖНО

!!Акция!!

Alien_RageХит недели

RePack

Resident Evil 21

ИГРА 18+

pack

RePack

jed

!!Акция!!

Alien_Rage

RePack

fifa19

RePack

Assassins Creed: Odyssey

RePack

NEED FOR SPEED™ PAYBACK

4 сезон

9 сезон

Бесстыжие 9 сезон

Все сериалы

все сериалы на PB.wtf

RePack

FAR CRY 5
  

Восхождение Сокола / Falcon Rising (Эрни Барбараш) [2014 г., боевик, приключения, WEB-DLRip 1080p, Любительский одноголосый] [R.A.I.M] pb.wtf

Восхождение Сокола через торрент pb.wtf

Размер: 4.11 GB | Добавлен: 5 лет 9 мес. назад | Торрент скачан:268 раз
Скачать  

30-09-2014 08:15 Восхождение Сокола Скачать торрент  

Восхождение Сокола / Falcon Rising
Год выпуска: 2014
Страна: США
Жанр: боевик, приключения
Продолжительность: 01:40:58
Перевод: Любительский (одноголосый) [R.A.I.M] + оригинал
Субтитры: Английские

Режиссер: Эрни Барбараш
Бюджет:4 500 000$
В ролях: Нил МакДонаф,Майкл Джей Уайт,Лайла Али,Латиф Кроудер,Хазуки Като,Масаси Одате,Милли Руперто,Robert Colon,Жасмин Каратини,Майкл Дж. Моррис

Описание: Джон Чепмен по кличке «Сокол» отправляется в Бразилию, чтобы выследить убийц своей сестры. В процессе поисков он сталкивается с контролируемым японской мафией подпольным миром наркотиков, проституции и продажных полицейских.

Качество: WEB-DL 1080p
Формат: MKV
Видео кодек: AVC
Аудио кодек: AC3
Видео: AVC,1920x1028, 4949 kbps, 23,976к/сек
Аудио#1: English: AC3,6 ch,384 kbps, 48,0 КГц
Аудио#2: Russian: AC3,6 ch,384 kbps, 48,0 КГц
скриншот  скриншот  скриншот  

Общее
Уникальный идентификатор : 242912275883521160089527430096740463766 (0xB6BF33DD7BFD15C5AA739414DED4B496)
Полное имя : C:\Users\Иван\Desktop\Торенты!!!\Восхождение сокола(Falcon.Rising).2014.L1.Eng.1080p.WEB-DL.DD5.1.H264.mkv
Формат : Matroska
Версия формата : Version 4 / Version 2
Размер файла : 4,11 Гбайт
Продолжительность : 1 ч. 40 м.
Общий поток : 5825 Кбит/сек
Название фильма : ~v~
Дата кодирования : UTC 2010-02-22 21:41:31
Программа кодирования : mkvmerge v5.9.0 ('On The Loose') built on Dec 9 2012 15:37:01
Библиотека кодирования : libebml v1.3.0 + libmatroska v1.4.0
Attachment : Yes / Yes / Yes / Yes

Видео
Идентификатор : 1
Формат : AVC
Формат/Информация : Advanced Video Codec
Профиль формата : High@L4.0
Параметр CABAC формата : Да
Параметр ReFrames формата : 4 кадра
Режим смешивания : Header stripping
Идентификатор кодека : V_MPEG4/ISO/AVC
Продолжительность : 1 ч. 40 м.
Битрейт : 4941 Кбит/сек
Ширина : 1920 пикселей
Высота : 1028 пикселей
Соотношение сторон : 1,85:1
Режим частоты кадров : Постоянный
Частота кадров : 23,976 кадра/сек
Цветовое пространство : YUV
Субдискретизация насыщенности : 4:2:0
Битовая глубина : 8 бит
Тип развёртки : Прогрессивная
Бит/(Пиксели*Кадры) : 0.104
Размер потока : 3,48 Гбайт (85%)
Заголовок : Falcon.Rising.2014.1080p.WEB-DL.DD5.1.H264-RARBG
Язык : English
Default : Да
Forced : Нет
Основные цвета : BT.709
Характеристики трансфера : BT.709
Коэффициенты матрицы : BT.709

Аудио #1
Идентификатор : 2
Формат : AC-3
Формат/Информация : Audio Coding 3
Расширение режима : CM (complete main)
Параметр Endianness формата : Big
Режим смешивания : Header stripping
Идентификатор кодека : A_AC3
Продолжительность : 1 ч. 40 м.
Вид битрейта : Постоянный
Битрейт : 384 Кбит/сек
Каналы : 6 каналов
Расположение каналов : Front: L C R, Side: L R, LFE
Частота : 48,0 КГц
Битовая глубина : 16 бит
Метод сжатия : С потерями
Размер потока : 277 Мбайт (7%)
Заголовок : Falcon.Rising.2014.1080p.WEB-DL.DD5.1.H264-RARBG
Язык : English
Default : Нет
Forced : Нет

Аудио #2
Идентификатор : 4
Формат : AC-3
Формат/Информация : Audio Coding 3
Расширение режима : CM (complete main)
Параметр Endianness формата : Big
Режим смешивания : Header stripping
Идентификатор кодека : A_AC3
Продолжительность : 1 ч. 40 м.
Вид битрейта : Постоянный
Битрейт : 384 Кбит/сек
Каналы : 6 каналов
Расположение каналов : Front: L C R, Side: L R, LFE
Частота : 48,0 КГц
Битовая глубина : 16 бит
Метод сжатия : С потерями
Размер потока : 277 Мбайт (7%)
Заголовок : RAIN
Язык : Russian
Default : Да
Forced : Нет

Текст
Идентификатор : 3
Формат : UTF-8
Идентификатор кодека : S_TEXT/UTF8
Идентификатор кодека/Информация : UTF-8 Plain Text
Язык : English
Default : Нет
Forced : Нет

Меню
00:00:00.000 : en:1
00:11:30.000 : en:2
00:24:35.000 : en:3
00:34:28.000 : en:4
00:44:48.000 : en:5
00:55:28.000 : en:6
01:06:32.000 : en:7
01:16:01.000 : en:8
01:30:53.000 : en:9
01:35:44.000 : en:10

pb.wtf



Скачать Восхождение Сокола через торрент http://pic.kartinco.top/images/7/yaa4y.jpg Скачать фильм Восхождение Сокола через торрент бесплантно в хорошем качестве Описание: Джон Чепмен по кличке «Сокол» отправляется в Бразилию, чтобы выследить убийц своей сестры. В процессе поисков он сталкивается с ... 9.7 10 16
Торрент: Зарегистрирован [2014-09-30 08:15] · скачан: 268 раз
Статус: T временная
Размер: 4.11 GB
Как cкачать? Как скачать Восхождение Сокола через торрент | qTorrent

% Раздел Тема Автор DL S | L
T Фильмы 2014 (Звук TS, Cam, VO, DVO) [ 1.46 GB ] Восхождение Сокола / Falcon Rising [2014 WEB-DLRip Любительский [R.A.I.M] Ворон Скачать
1 | 0
T Фильмы 2014 (Звук TS, Cam, VO, DVO) [ 683 MB ] Восхождение Сокола / Falcon Rising [2014 WEB-DLRip Любительский [R.A.I.M] Ворон Скачать
1 | 0
Фильмы без перевода [ 1.2 GB ] Восхождение Сокола / Falcon Rising [2014 HDRip Eng + SubEng] makarevich Скачать
1 | 0


Последний раз редактировалось: Bibendi (2014-09-30 11:47), всего редактировалось 6 раз(а)

28-11-2019 20:33  

Отключить всю рекламу на сайте

30-09-2014 09:31 Восхождение Сокола Скачать торрент  

Предоставьте отчёт MI по инструкции:
Как получить информацию по видеофайлу pb.wtf



01-10-2014 19:34 Восхождение Сокола Скачать торрент  

Классный боевик!
Этакий "черный Макс Пейн 3" :)
Майкл Джей Уайт - крут и трюки исполняет на ура!
Любителям жанра - смотреть смело!pb.wtf



28-12-2015 05:39 Восхождение Сокола Скачать торрент  

Полная фигня!!!pb.wtf



    Дорогой пользователь! Огромная просьба, поблагодарите релизера, оцените раздачу и оставьте свои комментарий, если Вы скачали Восхождение Сокола через торрент бесплатно! Внесите свою лепту в развитие PiratBit!
    Комментировать посты могут только пользователи прошедшие не сложную регистрацию
    Показать сообщения:    

    Восхождение Сокола через торрент
    Скачать бесплатно Восхождение Сокола
    Восхождение Сокола скачать торрент
    Восхождение Сокола смотреть онлайн
    Cкачать фильм Восхождение Сокола бесплатно
    Восхождение Сокола скачать торрент в хорошем качестве
    Восхождение Сокола смотреть онлайн бесплатно в хорошем качестве


    Вы не можете начинать темы
    Вы не можете отвечать на сообщения
    Вы не можете редактировать свои сообщения
    Вы не можете удалять свои сообщения
    Вы не можете голосовать в опросах
    Вы не можете прикреплять файлы к сообщениям
    Вы можете скачивать файлы