MEGA SALE -50% FORZA HORIZON 4 ULTIMATE+ВСЕ DLC+ОНЛАЙН всего за 599р. 299 руб. (супер цена). Внимание количество ограничено!!!

iTunes

1+1

iTunes

мы

iTunes

1

iTunes

Чернобыль

iTunes

Ральф против интернета

Лицензия

ПШазам

Лицензия

Игра престолов

Лицензия

30
pack

ВАЖНО

!!Акция!!

Alien_RageХит недели

RePack

Resident Evil 21

ИГРА 18+

pack

RePack

Metro:Exodus

!!Акция!!

Alien_Rage

RePack

fifa19

RePack

Assassins Creed: Odyssey

RePack

NEED FOR SPEED™ PAYBACK

3 сезон

9 сезон

Бесстыжие 9 сезон

Все сериалы

все сериалы на PB.wtf

RePack

FAR CRY 5
Ребята, катастрофически не хватает 7730р. для оплаты серверов за АВГУСТ (всвязи с блокировками трафик упал в 3 раза), 1-2р., выручайте.
  

Ты и я / You and I(Роланд Жоффе) [2009, США, Россия, драма, мелодрама, комедия, HDRip] DUB Лицензия pb.wtf

Ты и я через торрент pb.wtf

Размер: 1.46 GB | Добавлен: 4 года 11 мес. назад | Торрент скачан:151 раз
Скачать  

30-09-2014 11:05 Ты и я Скачать торрент  

Ты и я / You and I«Love and desire... it gets complicated»
Год выпуска: 2009
Страна: США, Россия
Жанр: драма, мелодрама, комедия
Продолжительность: 01:40:42
Перевод: Дубляж - [Лицензия]
Субтитры: Отсутствует
Режиссер: Роланд Жоффе
В ролях:


Миша Бартон (Лана Старкова), Шантель Ван Сантен (Джени Сойер), Антон Ельчин (Эдвард Никитин), Алекс Калужский (Дима), Чарли Крид-Майлз (Ян), Хелена Мэттссон (Кира), Игорь Десятников (Иван), Александр Белоногов (Макс, продюсер ТАТУ), Лена Катина (играет саму себя), Юлия Волкова (играет саму себя), Екатерина Маликова (Марина), Руслан Сасин (Вадим)

Описание:
Главная героиня фильма - шестнадцатилетняя американка Джейни Соер - недавно переехала в Москву и «влюбилась» в группу Тату. На почве музыкальных пристрастий героиня знакомится в чате с русской сверстницей Ланой Старковой, и они вместе отправляются на концерт.
Но, оказывается, не так-то просто попасть в Москве на стадион. По пути девчонок ожидает масса неожиданностей и опасностей, которые таит ночной город и проверят их дружбу на прочность.

Рейтинг:
Бюджет:$20 000 000
MPAA: R - Лицам до 17 лет обязательно присутствие взрослого
Качество: HDRip
Формат: AVI
Видео кодек:XviD
Аудио кодек:AC3
Видео: XviD, 704x288 (2.40:1), 1623 kbps, 23,976 fps, 0,334 bpp
Аудио: AC3 / 5.1 / 48 kHz / 448 kbps / 16 bit

General
Complete name : D:\Users\_KaisiK_\uTorrent\КИНО\Ty.i.ya.2011.HDRip.avi
Format : AVI
Format/Info : Audio Video Interleave
File size : 1.46 GiB
Duration : 1h 40mn
Overall bit rate : 2 079 Kbps
Movie name : Ты и я / You and I (2011) HDRip
Genre : Драма, мелодрама, комедия
Recorded date : 28.09.2014
Writing application : VirtualDubMod 1.5.10.3 | www.virtualdub-fr.org || (build 2550/release)
Writing library : VirtualDubMod build 2550/release
Copyright : rip by ivandubskoj

Video
ID : 0
Format : MPEG-4 Visual
Format profile : Advanced Simple@L5
Format settings, BVOP : 1
Format settings, QPel : No
Format settings, GMC : No warppoints
Format settings, Matrix : Custom
Codec ID : XVID
Codec ID/Hint : XviD
Duration : 1h 40mn
Bit rate : 1 623 Kbps
Width : 704 pixels
Height : 288 pixels
Display aspect ratio : 2.40:1
Frame rate : 23.976 fps
Color space : YUV
Chroma subsampling : 4:2:0
Bit depth : 8 bits
Scan type : Progressive
Compression mode : Lossy
Bits/(Pixel*Frame) : 0.334
Stream size : 1.14 GiB (78%)
Writing library : XviD 73

Audio
ID : 1
Format : AC-3
Format/Info : Audio Coding 3
Mode extension : CM (complete main)
Codec ID : 2000
Duration : 1h 40mn
Bit rate mode : Constant
Bit rate : 448 Kbps
Channel(s) : 6 channels
Channel positions : Front: L C R, Side: L R, LFE
Sampling rate : 48.0 KHz
Bit depth : 16 bits
Compression mode : Lossy
Stream size : 323 MiB (22%)
Alignment : Split accross interleaves
Interleave, duration : 64 ms (1.53 video frames)
Interleave, preload duration : 500 ms
Title : Russian, DUB [Мосфильм-Мастер]

[/code]
pb.wtf



Скачать Ты и я через торрент http://i4.imageban.ru/out/2014/09/30/6ba33952228043eb339f25ca287cf23b.jpg Скачать фильм Ты и я через торрент бесплантно в хорошем качестве Описание: Главная героиня фильма - шестнадцатилетняя американка Джейни Соер - недавно переехала в Москву и «влюбилась» в группу Тату. На ... 7.8 10 4
Торрент: Зарегистрирован [2014-09-30 11:05] · скачан: 151 раз
Статус: √ проверено
Размер: 1.46 GB
Как cкачать? Как скачать Ты и я через торрент | qTorrent


>> Регистрируемся здесь <<






Отзывы и комментарии о схеме читаем и пишем здесь: ---> Отзывы и комментарии о схеме

Новые благодарочки в телеграм довольных пользователей:
скриншот   скриншот   скриншот   скриншот   скриншот
    Дорогой пользователь! Огромная просьба, поблагодарите релизера, оцените раздачу и оставьте свои комментарий, если Вы скачали Ты и я через торрент бесплатно! Внесите свою лепту в развитие PiratBit!
    Комментировать посты могут только пользователи прошедшие не сложную регистрацию
    Показать сообщения:    

    Ты и я через торрент
    Скачать бесплатно Ты и я
    Ты и я скачать торрент
    Ты и я смотреть онлайн
    Cкачать фильм Ты и я бесплатно
    Ты и я скачать торрент в хорошем качестве
    Ты и я смотреть онлайн бесплатно в хорошем качестве


    Вы не можете начинать темы
    Вы не можете отвечать на сообщения
    Вы не можете редактировать свои сообщения
    Вы не можете удалять свои сообщения
    Вы не можете голосовать в опросах
    Вы не можете прикреплять файлы к сообщениям
    Вы можете скачивать файлы