2 сезон

iTunes

1 сезон

1

iTunes

iTunes

iTunes

1 сезон

RePack

30

ИГРА 18+

pack

ВАЖНО

!!Акция!!

Alien_RageХит недели

RePack

MK11
pack

Забери бонус

RePack

jed

!!Акция!!

Alien_Rage

RePack

fifa19

RePack

Assassins Creed: Odyssey

RePack

NEED FOR SPEED™ PAYBACK

4 сезон

9 сезон

Бесстыжие 9 сезон

Все сериалы

все сериалы на PB.wtf

RePack

FAR CRY 5
  

Последний луч света / The Last Light (Эндрю Хайатт) [2014 г., триллер, драма, WEB-DLRip, Любительский одноголосый "datynet" ] pb.wtf

Последний луч света через торрент pb.wtf

Размер: 1.36 GB | Добавлен: 6 лет 1 мес. назад | Торрент скачан:186 раз
Скачать  

30-09-2014 17:08 Последний луч света Скачать торрент  

Последний луч света / The Last Light
Год выпуска: 2014
Страна: США / Fox Hill Productions
Жанр: триллер, драма
Продолжительность: 01:33:09
Перевод: Любительский одноголосый (datynet)

Режиссер: Эндрю Хайатт

В ролях: Эдвард Ферлонг, Джефф Фэйи, Ивонн Зима, Эд Куинн, Молли Хэйгэн, Тахина Тоцци-МакМанус, Сет Д. Митчелл

Описание: Семь незнакомых друг с другом людей оказываются в ловушке внутри заброшенной больницы после необъяснимых апокалиптических событий. Помимо простого выживания, они должны бороться с загадочными существами, которые выслеживают их по одиночке.

Качество: WEB-DLRip
Формат: AVI
Видео кодек: XviD
Аудио кодек: AC3
Видео: MPEG4, XviD, 720x376 (1.915), 23.976 fps, 1 882 Kbps (0.290 bit/pixel)
Аудио: AC-3, 48.0 KHz, 2 ch, 192 Kbps, CBR

скриншот   скриншот   скриншот   скриншот   скриншот  

Общее
Полное имя : G:\кино\The.Last.Light.2014.WEB-DLRip.avi
Формат : AVI
Формат/Информация : Audio Video Interleave
Размер файла : 1,36 Гбайт
Продолжительность : 1 ч. 33 м.
Общий поток : 2084 Кбит/сек
Программа кодирования : VirtualDubMod 1.5.10.3 | www.virtualdub-fr.org || (build 2550/release)
Библиотека кодирования : VirtualDubMod build 2550/release

Видео
Идентификатор : 0
Формат : MPEG-4 Visual
Профиль формата : Advanced Simple@L5
Параметр BVOP формата : 2
Параметр QPel формата : Нет
Параметр GMC формата : Без точки перехода
Параметр матрицы формата : Default (H.263)
Идентификатор кодека : XVID
Идентификатор кодека/Подсказка : XviD
Продолжительность : 1 ч. 33 м.
Битрейт : 1882 Кбит/сек
Ширина : 720 пикселей
Высота : 376 пикселей
Соотношение сторон : 1,915
Частота кадров : 23,976 кадра/сек
Цветовое пространство : YUV
Субдискретизация насыщенности : 4:2:0
Битовая глубина : 8 бит
Тип развёртки : Прогрессивная
Метод сжатия : С потерями
Бит/(Пиксели*Кадры) : 0.290
Размер потока : 1,22 Гбайт (90%)
Библиотека кодирования : XviD 1.2.1 (UTC 2008-12-04)

Аудио
Идентификатор : 1
Формат : AC-3
Формат/Информация : Audio Coding 3
Расширение режима : CM (complete main)
Параметр Endianness формата : Big
Идентификатор кодека : 2000
Продолжительность : 1 ч. 33 м.
Вид битрейта : Постоянный
Битрейт : 192 Кбит/сек
Каналы : 2 канала
Расположение каналов : Front: L R
Частота : 48,0 КГц
Битовая глубина : 16 бит
Метод сжатия : С потерями
Размер потока : 128 Мбайт (9%)
Выравнивание : Разделение по промежуткам
Продолжительность промежутка : 42 мс. (1,00 видеокадр)
Время предзагрузки промежутка : 500 мс.

pb.wtf



Скачать Последний луч света через торрент http://pic.kartinco.top/images/7/r3pu4.jpg Скачать фильм Последний луч света через торрент бесплантно в хорошем качестве Описание: Семь незнакомых друг с другом людей оказываются в ловушке внутри заброшенной больницы после необъяснимых апокалиптических ... 10 10 5
Торрент: Зарегистрирован [2014-09-30 17:08] · скачан: 186 раз
Статус: T временная
Размер: 1.36 GB
Как cкачать? Как скачать Последний луч света через торрент | qTorrent

28-11-2019 20:33  

Отключить всю рекламу на сайте

    Дорогой пользователь! Огромная просьба, поблагодарите релизера, оцените раздачу и оставьте свои комментарий, если Вы скачали Последний луч света через торрент бесплатно! Внесите свою лепту в развитие PiratBit!
    Комментировать посты могут только пользователи прошедшие не сложную регистрацию
    Показать сообщения:    

    Последний луч света через торрент
    Скачать бесплатно Последний луч света
    Последний луч света скачать торрент
    Последний луч света смотреть онлайн
    Cкачать фильм Последний луч света бесплатно
    Последний луч света скачать торрент в хорошем качестве
    Последний луч света смотреть онлайн бесплатно в хорошем качестве


    Вы не можете начинать темы
    Вы не можете отвечать на сообщения
    Вы не можете редактировать свои сообщения
    Вы не можете удалять свои сообщения
    Вы не можете голосовать в опросах
    Вы не можете прикреплять файлы к сообщениям
    Вы можете скачивать файлы