Ссылка на приватное зеркало нашего сайта всего за 1$. Внимание количество ограничено!!!

2 сезон

iTunes

1 сезон

1

iTunes

iTunes

iTunes

1 сезон

RePack

30

ИГРА 18+

pack

ВАЖНО

!!Акция!!

Alien_RageХит недели

RePack

MK11
pack

Забери бонус

RePack

jed

!!Акция!!

Alien_Rage

RePack

fifa19

RePack

Assassins Creed: Odyssey

RePack

NEED FOR SPEED™ PAYBACK

4 сезон

9 сезон

Бесстыжие 9 сезон

Все сериалы

все сериалы на PB.wtf

RePack

FAR CRY 5
  

Кикбоксёр / Kickboxer (Марк ДиСалле, Дэвид Уорт) [1989г., Боевик, триллер, спорт, BDRip 1080p] MVO, DVO, AVO, VO pb.wtf

Кикбоксёр через торрент pb.wtf

Размер: 14.21 GB | Добавлен: 6 лет назад | Торрент скачан:33 раза
Скачать  

01-10-2014 05:22 Кикбоксёр Скачать торрент  

Кикбоксёр / Kickboxer
Год выпуска: 1989
Страна: США
Жанр: Боевик, триллер, спорт
Продолжительность: 01:37:30
Перевод: Профессиональный многоголосый, профессиональный двухголосый, авторский, любительский одноголосый
Субтитры: русские (2 варианта), английские (2 варианта) (все отдельно)

Режиссёр: Марк ДиСалле, Дэвид Уорт

В ролях: Жан-Клод Ван Дамм, Деннис Алексио, Деннис Чан, Мишель Кисси, Хэскелл В. Андерсон III, Рошель Ашана, Чиа Тинг Ли, Ричард Фу, Рикки Лю, Син Хо Йинг, Тони Чан, Брэд Кернер, Дин Хэррингтон, Марк ДиСалле, Ричард Санторо, Луис Рот, Николас Джеймс, Джон Ладальски, Мэтью Чунг, Али Тэнг, Кэйли Ван, Аманда Чан, Фиби Чоу, Юк-Муи Енг, Ирен Чои, Вонг Уинг Шун, Вэй Чунг, Энди Ли, Юнг Чи Чунг, Джоан Вонг, Майкл Ли, Африка Чу, Те-Ло Мэй, Ванг Так Кеунг, Конг Лонг, Ли Хунг, Брюс Ло, Люн Хой Лун, Чунг Ва, Цан Синг Квонг, Хо Кари Юе, Зэнни Рейнолдс, Монтри Вонгбутр, Амнарт Комолторн, Пайрат Лавилард, Кантима Вутти, Итикрай Майтривонг, Йай Сае-Эар, Сайфар, Тубин, Пайакдум

Описание: Братья Курт и Эрик Слоан отправляются в Таиланд, на родину кикбоксинга, чтобы доказать местным бойцам превосходство американской школы над тайской. Эрик, чемпион Америки по кикбоксингу, встречается в бою с Тонг По, чемпионом Таиланда.Тонг По оказывается сущим зверем. Он намеренно калечит уже обессилевшего Эрика Слоана, обрекая его на инвалидность. Курт поступает в обучение к мастеру тайской борьбы Зену, чтобы победить Тонг По и отомстить за парализованного брата.



Качество: BDRip 1080p Сравнение с исходником
Формат: MKV
Видео кодек: H.264
Аудио кодек: AC3, DTS
Видео: 1920x1040, 13.6 M kbps, 23.976 кадра/с, 0.283 bpp
Аудио 1: русский, AC3, 192 kbps, 2 ch, 48 kHz [профессиональный многоголосый, студия Нота по заказу CTC]
Аудио 2: русский, DTS, 1509 kbps, 6 ch, 48 kHz [профессиональный двухголосый, Music-Traid]
Аудио 3: русский, AC3, 192 kbps, 2 ch, 48 kHz [авторский, Леонид Володарский]
Аудио 4: русский, DTS, 1509 kbps, 6 ch, 48 kHz [авторский, Андрей Гаврилов]

Отдельные файлы
Аудио: русский, AC3, 448 kbps, 6 ch, 48 kHz [профессиональный двухголосый, Music-Traid]
Аудио: русский, AC3, 192 kbps, 2 ch, 48 kHz [профессиональный двухголосый, Инис]
Аудио: русский, AC3, 448 kbps, 6 ch, 48 kHz [авторский, Андрей Гаврилов]
Аудио: русский, AC3, 192 kbps, 2 ch, 48 kHz [авторский, Вартан Дохалов]
Аудио: русский, AC3, 448 kbps, 6 ch, 48 kHz [авторский, Григорий Либергал]
Аудио: русский, AC3, 192 kbps, 2 ch, 48 kHz [одноголосый закадровый, вариант 1, неопределён]
Аудио: русский, AC3, 192 kbps, 2 ch, 48 kHz [одноголосый закадровый, вариант 2, неопределён]
Аудио: русский, AC3, 192 kbps, 2 ch, 48 kHz [одноголосый закадровый, вариант 3, неопределён]
Аудио: английский, DTS, 1509 kbps, 6 ch, 48 kHz [оригинал]

Имеются неименованные главы/чаптеры.

Автор рипа msltel
frame I:1091 Avg QP:18.51 size:176413
frame P:26737 Avg QP:19.07 size:108553
frame B:112445 Avg QP:21.14 size: 62892

Общее
Полное имя : D:VideoKickboxer.1989.BDRip.1080pKickboxer.1989.AVO.rus.А.Гаврилов.ac3
Формат : AC-3
Формат/Информация : Audio Coding 3
Размер файла : 312 Мбайт
Продолжительность : 1 ч. 37 м.
Режим общего битрейта : Постоянный
Общий поток : 448 Кбит/сек

Аудио
Формат : AC-3
Формат/Информация : Audio Coding 3
Расширение режима : CM (complete main)
Параметр Endianness формата : Big
Продолжительность : 1 ч. 37 м.
Вид битрейта : Постоянный
Битрейт : 448 Кбит/сек
Каналы : 6 каналов
Расположение каналов : Front: L C R, Side: L R, LFE
Частота : 48,0 КГц
Битовая глубина : 16 бит
Метод сжатия : С потерями
Размер потока : 312 Мбайт (100%)

Общее
Полное имя : D:VideoKickboxer.1989.BDRip.1080pKickboxer.1989.AVO.rus.В.Дохалов.ac3
Формат : AC-3
Формат/Информация : Audio Coding 3
Размер файла : 134 Мбайт
Продолжительность : 1 ч. 37 м.
Режим общего битрейта : Постоянный
Общий поток : 192 Кбит/сек

Аудио
Формат : AC-3
Формат/Информация : Audio Coding 3
Расширение режима : CM (complete main)
Параметр Endianness формата : Big
Продолжительность : 1 ч. 37 м.
Вид битрейта : Постоянный
Битрейт : 192 Кбит/сек
Каналы : 2 канала
Расположение каналов : Front: L R
Частота : 48,0 КГц
Битовая глубина : 16 бит
Метод сжатия : С потерями
Размер потока : 134 Мбайт (100%)

Общее
Полное имя : D:VideoKickboxer.1989.BDRip.1080pKickboxer.1989.AVO.rus.Г.Либергал.ac3
Формат : AC-3
Формат/Информация : Audio Coding 3
Размер файла : 134 Мбайт
Продолжительность : 1 ч. 37 м.
Режим общего битрейта : Постоянный
Общий поток : 192 Кбит/сек

Аудио
Формат : AC-3
Формат/Информация : Audio Coding 3
Расширение режима : CM (complete main)
Параметр Endianness формата : Big
Продолжительность : 1 ч. 37 м.
Вид битрейта : Постоянный
Битрейт : 192 Кбит/сек
Каналы : 2 канала
Расположение каналов : Front: L R
Частота : 48,0 КГц
Битовая глубина : 16 бит
Метод сжатия : С потерями
Размер потока : 134 Мбайт (100%)

Общее
Уникальный идентификатор : 250046878374689495874179776606682757052 (0xBC1D46ED285410F6A676042EC00837BC)
Полное имя : D:VideoKickboxer.1989.BDRip.1080pKickboxer.1989.BDRip.1080p.mkv
Формат : Matroska
Версия формата : Version 4 / Version 2
Размер файла : 11,8 Гбайт
Продолжительность : 1 ч. 37 м.
Общий поток : 17,3 Мбит/сек
Дата кодирования : UTC 2014-10-01 02:43:56
Программа кодирования : mkvmerge v6.9.1 ('Blue Panther') 64bit built on Apr 18 2014 18:23:38
Библиотека кодирования : libebml v1.3.0 + libmatroska v1.4.1

Видео
Идентификатор : 1
Формат : AVC
Формат/Информация : Advanced Video Codec
Профиль формата : High@L4.1
Параметр CABAC формата : Да
Параметр ReFrames формата : 4 кадра
Идентификатор кодека : V_MPEG4/ISO/AVC
Продолжительность : 1 ч. 37 м.
Битрейт : 13,6 Мбит/сек
Ширина : 1920 пикселей
Высота : 1040 пикселей
Соотношение сторон : 1,85:1
Режим частоты кадров : Постоянный
Частота кадров : 23,976 кадра/сек
Цветовое пространство : YUV
Субдискретизация насыщенности : 4:2:0
Битовая глубина : 8 бит
Тип развёртки : Прогрессивная
Бит/(Пиксели*Кадры) : 0.283
Размер потока : 9,24 Гбайт (78%)
Заголовок : BDRip -- STarankov
Библиотека кодирования : x264 core 142 r2431 ac76440
Настройки программы : cabac=1 / ref=4 / deblock=1:-1:-1 / analyse=0x3:0x113 / me=umh / subme=10 / psy=1 / psy_rd=1.00:0.15 / mixed_ref=1 / me_range=32 / chroma_me=1 / trellis=2 / 8x8dct=1 / cqm=0 / deadzone=21,11 / fast_pskip=0 / chroma_qp_offset=-3 / threads=6 / lookahead_threads=1 / sliced_threads=0 / nr=0 / decimate=1 / interlaced=0 / bluray_compat=0 / constrained_intra=0 / bframes=8 / b_pyramid=2 / b_adapt=2 / b_bias=0 / direct=1 / weightb=1 / open_gop=0 / weightp=2 / keyint=230 / keyint_min=23 / scenecut=40 / intra_refresh=0 / rc_lookahead=40 / rc=crf / mbtree=0 / crf=19.0 / qcomp=0.60 / qpmin=0 / qpmax=69 / qpstep=4 / vbv_maxrate=40000 / vbv_bufsize=50000 / crf_max=0.0 / nal_hrd=none / filler=0 / ip_ratio=1.40 / pb_ratio=1.30 / aq=1:1.00
Язык : English
Default : Да
Forced : Нет

Аудио #1
Идентификатор : 2
Формат : AC-3
Формат/Информация : Audio Coding 3
Расширение режима : CM (complete main)
Параметр Endianness формата : Big
Идентификатор кодека : A_AC3
Продолжительность : 1 ч. 37 м.
Вид битрейта : Постоянный
Битрейт : 192 Кбит/сек
Каналы : 2 канала
Расположение каналов : Front: L R
Частота : 48,0 КГц
Битовая глубина : 16 бит
Метод сжатия : С потерями
Размер потока : 134 Мбайт (1%)
Заголовок : MVO (студия Нота по заказу CTC)
Язык : Russian
Default : Да
Forced : Нет

Аудио #2
Идентификатор : 3
Формат : DTS
Формат/Информация : Digital Theater Systems
Режим : 16
Параметр Endianness формата : Big
Идентификатор кодека : A_DTS
Продолжительность : 1 ч. 37 м.
Вид битрейта : Постоянный
Битрейт : 1509 Кбит/сек
Каналы : 6 каналов
Расположение каналов : Front: L C R, Side: L R, LFE
Частота : 48,0 КГц
Битовая глубина : 24 бит
Метод сжатия : С потерями
Размер потока : 1,03 Гбайт (9%)
Заголовок : DVO (Music-Traid)
Язык : Russian
Default : Нет
Forced : Нет

Аудио #3
Идентификатор : 4
Формат : AC-3
Формат/Информация : Audio Coding 3
Расширение режима : CM (complete main)
Параметр Endianness формата : Big
Идентификатор кодека : A_AC3
Продолжительность : 1 ч. 37 м.
Вид битрейта : Постоянный
Битрейт : 192 Кбит/сек
Каналы : 2 канала
Расположение каналов : Front: L R
Частота : 48,0 КГц
Битовая глубина : 16 бит
Метод сжатия : С потерями
Размер потока : 134 Мбайт (1%)
Заголовок : AVO (Леонид Володарский)
Язык : Russian
Default : Нет
Forced : Нет

Аудио #4
Идентификатор : 5
Формат : DTS
Формат/Информация : Digital Theater Systems
Режим : 16
Параметр Endianness формата : Big
Идентификатор кодека : A_DTS
Продолжительность : 1 ч. 37 м.
Вид битрейта : Постоянный
Битрейт : 1509 Кбит/сек
Каналы : 6 каналов
Расположение каналов : Front: L C R, Side: L R, LFE
Частота : 48,0 КГц
Битовая глубина : 24 бит
Метод сжатия : С потерями
Размер потока : 1,03 Гбайт (9%)
Заголовок : AVO (Андрей Гаврилов)
Язык : Russian
Default : Нет
Forced : Нет

Меню
00:00:00.000 : :Chapter 01
00:11:16.217 : :Chapter 02
00:17:34.470 : :Chapter 03
00:27:19.512 : :Chapter 04
00:36:48.789 : :Chapter 05
00:44:06.769 : :Chapter 06
00:53:13.023 : :Chapter 07
01:01:34.691 : :Chapter 08
01:09:54.356 : :Chapter 09
01:16:38.051 : :Chapter 10
01:29:07.717 : :Chapter 11
01:33:34.567 : :Chapter 12

Общее
Полное имя : D:VideoKickboxer.1989.BDRip.1080pKickboxer.1989.DVO.rus.Music-Traid.ac3
Формат : AC-3
Формат/Информация : Audio Coding 3
Размер файла : 312 Мбайт
Продолжительность : 1 ч. 37 м.
Режим общего битрейта : Постоянный
Общий поток : 448 Кбит/сек

Аудио
Формат : AC-3
Формат/Информация : Audio Coding 3
Расширение режима : CM (complete main)
Параметр Endianness формата : Big
Продолжительность : 1 ч. 37 м.
Вид битрейта : Постоянный
Битрейт : 448 Кбит/сек
Каналы : 6 каналов
Расположение каналов : Front: L C R, Side: L R, LFE
Частота : 48,0 КГц
Битовая глубина : 16 бит
Метод сжатия : С потерями
Размер потока : 312 Мбайт (100%)

Общее
Полное имя : D:VideoKickboxer.1989.BDRip.1080pKickboxer.1989.DVO.rus.Инис.ac3
Формат : AC-3
Формат/Информация : Audio Coding 3
Размер файла : 134 Мбайт
Продолжительность : 1 ч. 37 м.
Режим общего битрейта : Постоянный
Общий поток : 192 Кбит/сек

Аудио
Формат : AC-3
Формат/Информация : Audio Coding 3
Расширение режима : CM (complete main)
Параметр Endianness формата : Big
Продолжительность : 1 ч. 37 м.
Вид битрейта : Постоянный
Битрейт : 192 Кбит/сек
Каналы : 2 канала
Расположение каналов : Front: L R
Частота : 48,0 КГц
Битовая глубина : 16 бит
Метод сжатия : С потерями
Размер потока : 134 Мбайт (100%)

Общее
Полное имя : D:VideoKickboxer.1989.BDRip.1080pKickboxer.1989.eng.srt
Формат : SubRip
Размер файла : 41,7 Кбайт

Текст
Формат : SubRip
Метод сжатия : Без потерь

Общее
Полное имя : D:VideoKickboxer.1989.BDRip.1080pKickboxer.1989.eng2.srt
Формат : SubRip
Размер файла : 40,3 Кбайт

Текст
Формат : SubRip
Метод сжатия : Без потерь

Общее
Полное имя : D:VideoKickboxer.1989.BDRip.1080pKickboxer.1989.Original.eng.dts
Формат : DTS
Формат/Информация : Digital Theater Systems
Размер файла : 1,03 Гбайт
Продолжительность : 1 ч. 37 м.
Режим общего битрейта : Постоянный
Общий поток : 1509 Кбит/сек

Аудио
Формат : DTS
Формат/Информация : Digital Theater Systems
Режим : 16
Параметр Endianness формата : Big
Продолжительность : 1 ч. 37 м.
Вид битрейта : Постоянный
Битрейт : 1509 Кбит/сек
Каналы : 6 каналов
Расположение каналов : Front: L C R, Side: L R, LFE
Частота : 48,0 КГц
Битовая глубина : 24 бит
Метод сжатия : С потерями
Размер потока : 1,03 Гбайт (100%)

Общее
Полное имя : D:VideoKickboxer.1989.BDRip.1080pKickboxer.1989.rus.Srt
Формат : SubRip
Размер файла : 41,3 Кбайт

Текст
Формат : SubRip
Метод сжатия : Без потерь

Общее
Полное имя : D:VideoKickboxer.1989.BDRip.1080pKickboxer.1989.rus2.srt
Формат : SubRip
Размер файла : 44,4 Кбайт

Текст
Формат : SubRip
Метод сжатия : Без потерь

Общее
Полное имя : D:VideoKickboxer.1989.BDRip.1080pKickboxer.1989.VO.rus.любительский одноголосый1.ac3
Формат : AC-3
Формат/Информация : Audio Coding 3
Размер файла : 134 Мбайт
Продолжительность : 1 ч. 37 м.
Режим общего битрейта : Постоянный
Общий поток : 192 Кбит/сек

Аудио
Формат : AC-3
Формат/Информация : Audio Coding 3
Расширение режима : CM (complete main)
Параметр Endianness формата : Big
Продолжительность : 1 ч. 37 м.
Вид битрейта : Постоянный
Битрейт : 192 Кбит/сек
Каналы : 2 канала
Расположение каналов : Front: L R
Частота : 48,0 КГц
Битовая глубина : 16 бит
Метод сжатия : С потерями
Размер потока : 134 Мбайт (100%)

Общее
Полное имя : D:VideoKickboxer.1989.BDRip.1080pKickboxer.1989.VO.rus.любительский одноголосый2.ac3
Формат : AC-3
Формат/Информация : Audio Coding 3
Размер файла : 134 Мбайт
Продолжительность : 1 ч. 37 м.
Режим общего битрейта : Постоянный
Общий поток : 192 Кбит/сек

Аудио
Формат : AC-3
Формат/Информация : Audio Coding 3
Расширение режима : CM (complete main)
Параметр Endianness формата : Big
Продолжительность : 1 ч. 37 м.
Вид битрейта : Постоянный
Битрейт : 192 Кбит/сек
Каналы : 2 канала
Расположение каналов : Front: L R
Частота : 48,0 КГц
Битовая глубина : 16 бит
Метод сжатия : С потерями
Размер потока : 134 Мбайт (100%)

Общее
Полное имя : D:VideoKickboxer.1989.BDRip.1080pKickboxer.1989.VO.rus.любительский одноголосый3.ac3
Формат : AC-3
Формат/Информация : Audio Coding 3
Размер файла : 134 Мбайт
Продолжительность : 1 ч. 37 м.
Режим общего битрейта : Постоянный
Общий поток : 192 Кбит/сек

Аудио
Формат : AC-3
Формат/Информация : Audio Coding 3
Расширение режима : CM (complete main)
Параметр Endianness формата : Big
Продолжительность : 1 ч. 37 м.
Вид битрейта : Постоянный
Битрейт : 192 Кбит/сек
Каналы : 2 канала
Расположение каналов : Front: L R
Частота : 48,0 КГц
Битовая глубина : 16 бит
Метод сжатия : С потерями
Размер потока : 134 Мбайт (100%)
pb.wtf



Скачать Кикбоксёр через торрент http://i66.fastpic.ru/big/2014/0930/a4/e867b9bcddbac7fa97439e785c35fea4.jpg Скачать фильм Кикбоксёр через торрент бесплантно в хорошем качестве Описание: Братья Курт и Эрик Слоан отправляются в Таиланд, на родину кикбоксинга, чтобы доказать местным бойцам превосходство американской ... 10 10 7
Торрент: Зарегистрирован [2014-10-01 05:22] · скачан: 33 раз
Статус: √ проверено
Размер: 14.21 GB
Как cкачать? Как скачать Кикбоксёр через торрент | qTorrent

% Раздел Тема Автор DL S | L
Фильмы [HD 720p, 1080p] (Хороший звук DUB, MVO) [ 4.4 GB ] Кикбоксер 4: Агрессор / Kickboxer 4: The Aggressor [1994 BDRip 720p by msltel] MVO DVO 2 x AVO msltel Скачать
1 | 0
Фильмы [HD 720p, 1080p] (Хороший звук DUB, MVO) [ 8.24 GB ] Кикбоксёр / Kickboxer [1989 BDRip 720p] MVO DVO AVO VO msltel Скачать
1 | 0

28-11-2019 20:33  

Отключить всю рекламу на сайте

    Дорогой пользователь! Огромная просьба, поблагодарите релизера, оцените раздачу и оставьте свои комментарий, если Вы скачали Кикбоксёр через торрент бесплатно! Внесите свою лепту в развитие PiratBit!
    Комментировать посты могут только пользователи прошедшие не сложную регистрацию
    Показать сообщения:    

    Кикбоксёр через торрент
    Скачать бесплатно Кикбоксёр
    Кикбоксёр скачать торрент
    Кикбоксёр смотреть онлайн
    Cкачать фильм Кикбоксёр бесплатно
    Кикбоксёр скачать торрент в хорошем качестве
    Кикбоксёр смотреть онлайн бесплатно в хорошем качестве


    Вы не можете начинать темы
    Вы не можете отвечать на сообщения
    Вы не можете редактировать свои сообщения
    Вы не можете удалять свои сообщения
    Вы не можете голосовать в опросах
    Вы не можете прикреплять файлы к сообщениям
    Вы можете скачивать файлы