Всегда рабочее зеркало без VPN и Proxy просто перед .vidak.icu напиши любое слово или цифру, Пример http://txwb.vidak.icu

MVO

2 сезон

2 сезон

1

1 сезон

iTunes

2 сезон

13

1 сезон

Deluxe

pack

Рекомендуем

Пиратка

30

ВАЖНО

RePack

MK11

RePack

jed

RePack

fifa19

RePack

RDR2

RePack

NEED FOR SPEED™ PAYBACK

Кинопоиск HD

6 сезон

 Острые козырьки 6 сезон

Все сериалы

все сериалы на PB.wtf

RePack

FAR CRY 5

Anonymous, нам критически не хватает 5601 руб. на оплату серверов и переферии за Апрель, помоги нам пожалуйста, вся надежда только на тебя. В благодарность мы отключим тебе всю рекламу на сайте!

×
  
Magnet ссылка

Воображариум доктора Парнаса / The Imaginarium of Doctor Parnassus (Терри Гиллиам ) [2009, Фэнтези, приключения, детектив, BDRip 1080p] DUB / Лицензия pb.wtf

Воображариум доктора Парнаса через торрент pb.wtf

Размер: 7.76 GB | Добавлен: 7 лет 7 мес. назад | Торрент скачан:286 раз
Смотреть онлайн Воображариум доктора Парнаса | Скачать    Ребята, помогите собрать деньги на оплату серверов!!!

01-10-2014 17:21 Воображариум доктора Парнаса Скачать торрент  

Информация о фильме

Русское название: Воображариум доктора Парнаса
Оригинальное название: The Imaginarium of Doctor Parnassus
Год выхода: 2009
Жанр: Фэнтези, приключения, детектив
Режиссер: Терри Гиллиам
Выпущено: Канада, Франция, Великобритания
Продолжительность: 02:02:50
Перевод: Дублированный - Лицензия
В ролях: Джонни Депп, Хит Леджер, Джуд Лоу, Лили Коул, Колин Фаррелл, Кристофер Пламмер, Том Уэйтс, Эндрю Гарфилд, Петер Стормаре, Верн Тройер


Сюжет фильма

Путешествуя по миру вместе со своей труппой, доктор Парнас дает возможность зрителям шоу пройти сквозь волшебное зеркало в фантастический мир. Однако магический дар Парнаса имеет свою цену: в течение многих веков он играет в азартные игры с самим дьяволом, который собирается прийти и забрать свой приз — дочь Парнаса Валентину. Но девушка влюбляется в загадочного незнакомца по имени Тони, который присоединяется к труппе в Лондоне…


Файл

Качество: BDRip 1080p
Формат: AVC (библиотека кодирования x.264)
Контейнер (Расширение): MKV
Видео кодек: AVC
Аудио кодек:AC3
Видео: 1920x1040, 8148 Кбит/сек, 23,976 кадр/сек, AVC, x264, High@L4.1, 1.85:1, 0.170 Бит/[Пиксели*Кадры]
Аудио 1: AC-3, 448 Кбит/сек, 6 канала(ов), 48,0 КГц - Дублированный / Русский
Аудио 2: AC-3, 448 Кбит/сек, 6 канала(ов), 48,0 КГц - Оригинал / Английский
Субтитры: Русские | Полные, Английские | Полные
Навигация по главам: Есть









Автор Рипа: Сообщество:


скриншот   скриншот   скриншот  

Код:

x264 [info]: frame I:1291 Avg QP:18.76 size:212906
x264 [info]: frame P:48459 Avg QP:21.07 size: 68719
x264 [info]: frame B:126962 Avg QP:23.57 size: 30700

Код:

Format                                   : Matroska
Format version                           : Version 2
File size                                : 7.76 GiB
Duration                                 : 2h 2mn
Overall bit rate                         : 9 042 Kbps
Movie name                               : Воображариум доктора Парнаса.(2009).BDRip.1080p.[envy]
Encoded date                             : UTC 2014-10-01 16:08:24
Writing application                      : mkvmerge v5.8.0 ('No Sleep / Pillow') built on Sep  2 2012 15:37:04
Writing library                          : libebml v1.2.3 + libmatroska v1.3.0

Video
ID                                       : 1
Format                                   : AVC
Format/Info                              : Advanced Video Codec
Format profile                           : High@L4.1
Format settings, CABAC                   : Yes
Format settings, ReFrames                : 4 frames
Codec ID                                 : V_MPEG4/ISO/AVC
Duration                                 : 2h 2mn
Bit rate                                 : 8 148 Kbps
Width                                    : 1 920 pixels
Height                                   : 1 040 pixels
Display aspect ratio                     : 1.85:1
Frame rate mode                          : Constant
Frame rate                               : 23.976 fps
Color space                              : YUV
Chroma subsampling                       : 4:2:0
Bit depth                                : 8 bits
Scan type                                : Progressive
Bits/(Pixel*Frame)                       : 0.170
Stream size                              : 6.84 GiB (88%)
Title                                    : Воображариум доктора Парнаса.(2009).BDRip.1080p.[envy]
Writing library                          : x264 core 142 r2479 dd79a61
Encoding settings                        : cabac=1 / ref=4 / deblock=1:-3:-3 / analyse=0x3:0x113 / me=umh / subme=11 / psy=1 / psy_rd=1.00:0.00 / mixed_ref=1 / me_range=32 / chroma_me=1 / trellis=2 / 8x8dct=1 / cqm=0 / deadzone=21,11 / fast_pskip=0 / chroma_qp_offset=-2 / threads=12 / lookahead_threads=1 / sliced_threads=0 / nr=0 / decimate=1 / interlaced=0 / bluray_compat=0 / constrained_intra=0 / bframes=5 / b_pyramid=2 / b_adapt=2 / b_bias=0 / direct=3 / weightb=1 / open_gop=0 / weightp=2 / keyint=240 / keyint_min=23 / scenecut=40 / intra_refresh=0 / rc=2pass / mbtree=0 / bitrate=8148 / ratetol=2.0 / qcomp=0.60 / qpmin=0 / qpmax=69 / qpstep=4 / cplxblur=20.0 / qblur=0.5 / ip_ratio=1.40 / pb_ratio=1.30 / aq=2:1.00
Language                                 : English
Default                                  : Yes
Forced                                   : No

Audio #1
ID                                       : 2
Format                                   : AC-3
Format/Info                              : Audio Coding 3
Mode extension                           : CM (complete main)
Format settings, Endianness              : Big
Codec ID                                 : A_AC3
Duration                                 : 2h 2mn
Bit rate mode                            : Constant
Bit rate                                 : 448 Kbps
Channel(s)                               : 6 channels
Channel positions                        : Front: L C R, Side: L R, LFE
Sampling rate                            : 48.0 KHz
Bit depth                                : 16 bits
Compression mode                         : Lossy
Stream size                              : 394 MiB (5%)
Title                                    : Dub
Language                                 : Russian
Default                                  : Yes
Forced                                   : No

Audio #2
ID                                       : 3
Format                                   : AC-3
Format/Info                              : Audio Coding 3
Mode extension                           : CM (complete main)
Format settings, Endianness              : Big
Codec ID                                 : A_AC3
Duration                                 : 2h 2mn
Bit rate mode                            : Constant
Bit rate                                 : 448 Kbps
Channel(s)                               : 6 channels
Channel positions                        : Front: L C R, Side: L R, LFE
Sampling rate                            : 48.0 KHz
Bit depth                                : 16 bits
Compression mode                         : Lossy
Stream size                              : 394 MiB (5%)
Title                                    : Eng
Language                                 : English
Default                                  : No
Forced                                   : No

Text #1
ID                                       : 4
Format                                   : UTF-8
Codec ID                                 : S_TEXT/UTF8
Codec ID/Info                            : UTF-8 Plain Text
Title                                    : full
Language                                 : Russian
Default                                  : No
Forced                                   : No

Text #2
ID                                       : 5
Format                                   : UTF-8
Codec ID                                 : S_TEXT/UTF8
Codec ID/Info                            : UTF-8 Plain Text
Title                                    : full
Language                                 : English
Default                                  : No
Forced                                   : No

Menu
00:00:00.000                             : :Chapter 01
00:09:25.940                             : :Chapter 02
00:16:08.801                             : :Chapter 03
00:23:11.807                             : :Chapter 04
00:27:45.955                             : :Chapter 05
00:32:26.611                             : :Chapter 06
00:40:10.449                             : :Chapter 07
00:50:28.775                             : :Chapter 08
01:00:31.669                             : :Chapter 09
01:09:49.143                             : :Chapter 10
01:12:23.546                             : :Chapter 11
01:17:18.341                             : :Chapter 12
01:29:27.403                             : :Chapter 13
01:35:39.692                             : :Chapter 14
01:43:48.180                             : :Chapter 15
01:49:39.906                             : :Chapter 16
02:02:20.499                             : :Chapter 17



pb.wtf



Скачать Воображариум доктора Парнаса через торрент http://4.firepic.org/4/images/2014-10/01/fvyqehbyos4r.png Скачать, смотреть онлайн Воображариум доктора Парнаса бесплантно в хорошем качестве В ролях: Джонни Депп, Хит Леджер, Джуд Лоу, Лили Коул, Колин Фаррелл, Кристофер Пламмер, Том Уэйтс, Эндрю Гарфилд, Петер Стормаре, Верн ... 10 10 10
Торрент: Зарегистрирован [2014-10-01 17:21] · скачан: 286 раз
Статус: √ проверено
Размер: 7.76 GB
Как cкачать? Как скачать Воображариум доктора Парнаса через торрент | UTorrent

28-11-2019 20:33  

Отключить всю рекламу на сайте

    Дорогой пользователь! Огромная просьба, поблагодарите релизера, оцените раздачу и оставьте свои комментарий, если Вы скачали Воображариум доктора Парнаса через торрент бесплатно!
    Комментировать посты могут только пользователи прошедшие не сложную регистрацию
    Показать сообщения:    

    Воображариум доктора Парнаса через торрент
    Скачать бесплатно Воображариум доктора Парнаса
    Воображариум доктора Парнаса скачать торрент
    Воображариум доктора Парнаса смотреть онлайн
    Cкачать фильм Воображариум доктора Парнаса бесплатно
    Воображариум доктора Парнаса скачать торрент в хорошем качестве
    Воображариум доктора Парнаса смотреть онлайн бесплатно в хорошем качестве


    Вы не можете начинать темы
    Вы не можете отвечать на сообщения
    Вы не можете редактировать свои сообщения
    Вы не можете удалять свои сообщения
    Вы не можете голосовать в опросах
    Вы не можете прикреплять файлы к сообщениям
    Вы можете скачивать файлы