Всегда рабочее зеркало просто перед .vidak.icu напиши любое слово или цифру, Пример http://eac.vidak.icu

>

7.4

iTunes

7.4

2 сезон

9.4

1 сезон

1

7.4

2 сезон

7.2

iTunes

6.0

MVO

13

6.1

iTunes

8.3

Пиратка

30

ULTIMATE

pack

9.9

Лицензия

ВАЖНО

ИГРА 18+

pack

7.3

RePack

MK11

7.7

RePack

jed

7.8

RePack

fifa19

8.5

RePack

RDR2

RePack

NEED FOR SPEED™ PAYBACK

1 сезон

9 сезон

Бесстыжие 9 сезон

Все сериалы

все сериалы на PB.wtf

RePack

FAR CRY 5

Anonymous, доброе утро, мы катастрофически не успеваем собрать деньги на оплату серверов, помогите нам пожалуйста 5,10,15р., для нас важна любая помощь . В качестве благодарности мы отключим Вам всю рекламу на сайте (укажите свой ник в строку Ваше имя)!

×
  
Magnet ссылка

Моя семья / My Family (Грегори Нава / Gregory Nava) [1995, Драма, DVDRip] [AVO] (А.Гаврилов) pb.wtf

Моя семья через торрент pb.wtf

Размер: 1.47 GB | Добавлен: 7 лет 3 мес. назад | Торрент скачан:6 раз
Смотреть онлайн Моя семья | Скачать    Ребята, помогите собрать деньги на оплату серверов!!!

01-10-2014 18:34 Моя семья Скачать торрент  

Моя семья / My Family
Год выпуска: 1995
Страна: США
Жанр: Драма
Продолжительность: 02:06:33
Перевод: Авторский (одноголосый, закадровый) [А.Гаврилов]
Cубтитры: нет

Режиссер: Грегори Нава / Gregory Nava

В ролях: Эдвард Джеймс Олмос, Джимми Смитс, Дженнифер Лопез, Исай Моралес, Рафаэл Кортес, Иветт Рейна, Амелия Запата

Описание: Рассказ об этой мексиканской семье ведется от лица главного героя, ставшего писателем. Он вспоминаюет ее историю, начиная с того, как отец пешком дошел из глухой деревушки в Калифорнию, в Лос-Анджелес. Ведь когда-то Калифорния принадлежала Мексике. Уже после присоединения этой райской земли к Штатам на мексиканцев, родившихся и живших здесь, начались гонения. Нелегкая судьба, бедность, преступность и озлобленность не означают, что сердца этих людей ожесточились и не знают любви и тепла...

Сэмпл

Качество: DVDRip
Формат: AVI
Видео кодек: XviD
Аудио кодек: AC3
Видео: 720x384 (1.88:1), 23.976 fps, XviD build 50 ~1455 kbps avg, 0.22 bit/pixel
Аудио: 48 kHz, AC3 Dolby Digital, 2/0 (L,R) ch, ~192 kbps

Цитата:

Рип с переводом Гаврилова предоставил DeASS

Моя семья - My Family [Rip by DeASS].avi
Format : AVI
Format/Info : Audio Video Interleave
File size : 1.47 GiB
Duration : 2h 6mn
Overall bit rate : 1 657 Kbps
Movie name : Моя семья - My Family [Rip by DeASS]
Director : Rip by DeASS
Writing application : VirtualDubMod 1.5.10.3 | www.virtualdub-fr.org || (build 2550/release)
Video
ID : 0
Format : MPEG-4 Visual
Format profile : Advanced Simple@L5
Format settings, BVOP : 1
Format settings, QPel : No
Format settings, GMC : No warppoints
Format settings, Matrix : Default (MPEG)
Codec ID : XVID
Codec ID/Hint : XviD
Duration : 2h 6mn
Bit rate : 1 456 Kbps
Width : 720 pixels
Height : 384 pixels
Display aspect ratio : 1.85:1
Frame rate : 23.976 fps
Color space : YUV
Chroma subsampling : 4:2:0
Bit depth : 8 bits
Scan type : Progressive
Compression mode : Lossy
Bits/(Pixel*Frame) : 0.220
Stream size : 1.29 GiB (88%)
Writing library : XviD 1.2.1 (UTC 2008-12-04)
Audio
ID : 1
Format : AC-3
Format/Info : Audio Coding 3
Mode extension : CM (complete main)
Format settings, Endianness : Big
Codec ID : 2000
Duration : 2h 6mn
Bit rate mode : Constant
Bit rate : 192 Kbps
Channel(s) : 2 channels
Channel positions : Front: L R
Sampling rate : 48.0 KHz
Bit depth : 16 bits
Compression mode : Lossy
Stream size : 174 MiB (12%)
Alignment : Split accross interleaves
Interleave, duration : 42 ms (1.00 video frame)
Interleave, preload duration : 500 ms
pb.wtf



Скачать Моя семья через торрент http://i4.imageban.ru/out/2014/10/01/ce9ae668d372cc928734c93361b17bad.jpg Скачать, смотреть онлайн Моя семья бесплантно в хорошем качестве Описание: Рассказ об этой мексиканской семье ведется от лица главного героя, ставшего писателем. Он вспоминаюет ее историю, начиная с того, ... 10 10 2
Торрент: Зарегистрирован [2014-10-01 18:34] · скачан: 6 раз
Статус: √ проверено
Размер: 1.47 GB
Как cкачать? Как скачать Моя семья через торрент | UTorrent

% Раздел Тема Автор DL S | L
Фильмы 2019-2020 [DVDrip, WEB-DLRip, HDrip] (DUB, MVO) [ 744 MB ] Борьба с моей семьей / Fighting with My Family [2019 биография BDRip-AVC] sokol_ok Скачать
3 | 0
Фильмы 2019-2020 [DVDrip, WEB-DLRip, HDrip] (DUB, MVO) [ 1.46 GB ] Борьба с моей семьей / Fighting with My Family [2019 биография BDRip] - [] Twi7ter Скачать
2 | 0
Фильмы 2019-2020 [DVDrip, WEB-DLRip, HDrip] (DUB, MVO) [ 1.48 GB ] Борьба с моей семьей / Fighting with My Family [2019 биография BDRip-AVC] sokol_ok Скачать
3 | 0
Фильмы 2019-2020 [DVDrip, WEB-DLRip, HDrip] (DUB, MVO) [ 748 MB ] Борьба с моей семьей / Fighting with My Family [2019 биография HDRip] DUB [] bober100 Скачать
1 | 0
Фильмы [HD 720p, 1080p] (Хороший звук DUB, MVO) [ 5.2 GB ] Борьба с моей семьей / Fighting with My Family [2019 биография BDRip 720p] DUB [] bober100 Скачать
2 | 0
Фильмы [HD 720p, 1080p] (Хороший звук DUB, MVO) [ 8.99 GB ] Борьба с моей семьей / Fighting with My Family [2019 биография BDRip 1080p] DUB [] bober100 Скачать
1 | 0
Фильмы 2019-2020 [DVDrip, WEB-DLRip, HDrip] (DUB, MVO) [ 2.17 GB ] Борьба с моей семьей / Fighting with My Family [2019 биография BDRip-AVC] sokol_ok Скачать
10 | 0

28-11-2019 20:33  

Отключить всю рекламу на сайте

    Дорогой пользователь! Огромная просьба, поблагодарите релизера, оцените раздачу и оставьте свои комментарий, если Вы скачали Моя семья через торрент бесплатно!
    Комментировать посты могут только пользователи прошедшие не сложную регистрацию
    Показать сообщения:    

    Моя семья через торрент
    Скачать бесплатно Моя семья
    Моя семья скачать торрент
    Моя семья смотреть онлайн
    Cкачать фильм Моя семья бесплатно
    Моя семья скачать торрент в хорошем качестве
    Моя семья смотреть онлайн бесплатно в хорошем качестве


    Вы не можете начинать темы
    Вы не можете отвечать на сообщения
    Вы не можете редактировать свои сообщения
    Вы не можете удалять свои сообщения
    Вы не можете голосовать в опросах
    Вы не можете прикреплять файлы к сообщениям
    Вы можете скачивать файлы