2 сезон

iTunes

MVO

1

2 сезон

iTunes

iTunes

1 сезон

RePack

30

Ultimate

ВАЖНО

ИГРА 18+

pack

RePack

MK11
pack

Легкие деньги

RePack

jed

RePack

fifa19

RePack

RDR2

RePack

NEED FOR SPEED™ PAYBACK

4 сезон

9 сезон

Бесстыжие 9 сезон

Все сериалы

все сериалы на PB.wtf

RePack

FAR CRY 5

Anonymous, доброе утро, мы не успеваем собрать деньги на оплату серверов за декабрь и январь, помогите нам пожалуйста в это трудное время. В качестве благодарности мы отключим Вам всю рекламу на сайте (укажите свой ник в строку Ваше имя)!

×
  
Magnet ссылка

Лок / Locke (Cтивен Найт / Steven Knight) [2013 г., Драма, BDRip-AVC] MVO pb.wtf

Лок через торрент pb.wtf

Размер: 1.46 GB | Добавлен: 6 лет 3 мес. назад | Торрент скачан:495 раз
Скачать  

02-10-2014 17:04 Лок Скачать торрент  

Лок / Locke
Год выпуска: 2013
Страна: Великобритания, США / IM Global, Shoebox Films
Жанр: Драма
Продолжительность: 01:24:49
Перевод: Профессиональный многоголосый [Baibako]
Субтитры: Русские (Darksock), русские (Notabenoid), английские (Full + SDH + SDH-Colored)
Навигация по главам: Есть

Режиссер: Cтивен Найт / Steven Knight

В ролях: Том Харди, Оливия Колман, Рут Уилсон, Эндрю Скотт, Бен Дэниелс, Том Холлэнд, Билл Милнер, Дэниэл Уэбб, Элис Лоу, Сайлас Карсон

Описание: Айвен Лок живет размеренной жизнью и очень много работает, чтобы добиться успеха. Завтрашний день — один из важнейших в его жизни, его ждет карьерный рост. Но вечером раздается телефонный звонок, который перевернет его жизнь с ног на голову. Теперь ему предстоит выиграть схватку со временем и принять правильное решение.



Качество: BDRip-AVC
Формат: MKV
Видео кодек: H.264
Аудио кодек: AC3
Видео: 1044x436 (2,40:1), 23,976 fps, 1572 kbps, 0.144 bit/pixel
Аудио#1: 48 kHz, AC3 Dolby Digital, 3/2 (L,C,R,l,r) + LFE ch, 448.00 kbps | RUS
Аудио#2: 48 kHz, AC3 Dolby Digital, 3/2 (L,C,R,l,r) + LFE ch, 448.00 kbps | ENG

Автор рипа:

Общее
Уникальный идентификатор : 172313443593564365122818940559588078204 (0x81A25CB184FE27639624B5C8A630327C)
Полное имя : Lok.2013.DUAL.BDRip.x264.-HELLYWOOD.mkv
Формат : Matroska
Версия формата : Version 4 / Version 2
Размер файла : 1,46 Гбайт
Продолжительность : 1 ч. 24 м.
Общий поток : 2469 Кбит/сек
Название фильма : Locke (2013) - HELLYWOOD
Дата кодирования : UTC 2014-10-02 14:16:05
Программа кодирования : mkvmerge v5.9.0 ('On The Loose') built on Dec 15 2012 16:39:58
Библиотека кодирования : libebml v1.3.0 + libmatroska v1.4.0

Видео
Идентификатор : 1
Формат : AVC
Формат/Информация : Advanced Video Codec
Профиль формата : High@L4.1
Параметр CABAC формата : Да
Параметр ReFrames формата : 10 кадров
Идентификатор кодека : V_MPEG4/ISO/AVC
Продолжительность : 1 ч. 24 м.
Битрейт : 1572 Кбит/сек
Ширина : 1044 пикселя
Высота : 436 пикселей
Соотношение сторон : 2,40:1
Режим частоты кадров : Постоянный
Частота кадров : 23,976 кадра/сек
Цветовое пространство : YUV
Субдискретизация насыщенности : 4:2:0
Битовая глубина : 8 бит
Тип развёртки : Прогрессивная
Бит/(Пиксели*Кадры) : 0.144
Размер потока : 925 Мбайт (62%)
Заголовок : potroks
Библиотека кодирования : x264 core 130 r2273 b3065e6
Настройки программы : cabac=1 / ref=10 / deblock=1:-2:-2 / analyse=0x3:0x133 / me=umh / subme=11 / psy=1 / psy_rd=0.99:0.05 / mixed_ref=1 / me_range=48 / chroma_me=1 / trellis=2 / 8x8dct=1 / cqm=0 / deadzone=21,11 / fast_pskip=0 / chroma_qp_offset=-3 / threads=9 / lookahead_threads=2 / sliced_threads=0 / nr=0 / decimate=0 / interlaced=0 / bluray_compat=0 / constrained_intra=0 / bframes=11 / b_pyramid=2 / b_adapt=2 / b_bias=0 / direct=3 / weightb=1 / open_gop=0 / weightp=2 / keyint=250 / keyint_min=23 / scenecut=40 / intra_refresh=0 / rc_lookahead=60 / rc=2pass / mbtree=0 / bitrate=1572 / ratetol=1.0 / qcomp=0.70 / qpmin=0 / qpmax=69 / qpstep=4 / cplxblur=20.0 / qblur=0.5 / vbv_maxrate=50000 / vbv_bufsize=62500 / nal_hrd=none / ip_ratio=1.35 / pb_ratio=1.25 / aq=1:0.80
Язык : English
Default : Да
Forced : Нет

Аудио #1
Идентификатор : 2
Формат : AC-3
Формат/Информация : Audio Coding 3
Расширение режима : CM (complete main)
Параметр Endianness формата : Big
Идентификатор кодека : A_AC3
Продолжительность : 1 ч. 24 м.
Вид битрейта : Постоянный
Битрейт : 448 Кбит/сек
Каналы : 6 каналов
Расположение каналов : Front: L C R, Side: L R, LFE
Частота : 48,0 КГц
Битовая глубина : 16 бит
Метод сжатия : С потерями
Размер потока : 272 Мбайт (18%)
Заголовок : Dub | DD 5.1 @ 448 kbps - Baibako
Язык : Russian
Default : Да
Forced : Да

Аудио #2
Идентификатор : 3
Формат : AC-3
Формат/Информация : Audio Coding 3
Расширение режима : CM (complete main)
Параметр Endianness формата : Big
Идентификатор кодека : A_AC3
Продолжительность : 1 ч. 24 м.
Вид битрейта : Постоянный
Битрейт : 448 Кбит/сек
Каналы : 6 каналов
Расположение каналов : Front: L C R, Side: L R, LFE
Частота : 48,0 КГц
Битовая глубина : 16 бит
Метод сжатия : С потерями
Размер потока : 272 Мбайт (18%)
Заголовок : Original | DD 5.1 @ 448 kbps
Язык : English
Default : Нет
Forced : Нет

Текст #1
Идентификатор : 4
Формат : UTF-8
Идентификатор кодека : S_TEXT/UTF8
Идентификатор кодека/Информация : UTF-8 Plain Text
Заголовок : Darksock
Язык : Russian
Default : Нет
Forced : Нет

Текст #2
Идентификатор : 5
Формат : UTF-8
Идентификатор кодека : S_TEXT/UTF8
Идентификатор кодека/Информация : UTF-8 Plain Text
Заголовок : Notabenoid
Язык : Russian
Default : Нет
Forced : Нет

Текст #3
Идентификатор : 6
Формат : UTF-8
Идентификатор кодека : S_TEXT/UTF8
Идентификатор кодека/Информация : UTF-8 Plain Text
Язык : English
Default : Нет
Forced : Нет

Текст #4
Идентификатор : 7
Формат : UTF-8
Идентификатор кодека : S_TEXT/UTF8
Идентификатор кодека/Информация : UTF-8 Plain Text
Заголовок : SDH
Язык : English
Default : Нет
Forced : Нет

Текст #5
Идентификатор : 8
Формат : UTF-8
Идентификатор кодека : S_TEXT/UTF8
Идентификатор кодека/Информация : UTF-8 Plain Text
Заголовок : SDH-Colored
Язык : English
Default : Нет
Forced : Нет

Меню
00:00:00.000 : en:(01)00:00:00:000
00:03:38.468 : en:(02)00:03:38:468
00:09:22.727 : en:(03)00:09:22:727
00:15:00.983 : en:(04)00:15:00:983
00:21:20.529 : en:(05)00:21:20:529
00:26:00.225 : en:(06)00:26:00:225
00:30:32.038 : en:(07)00:30:32:038
00:37:23.866 : en:(08)00:37:23:866
00:43:03.539 : en:(09)00:43:03:539
00:49:57.411 : en:(10)00:49:57:411
00:56:08.406 : en:(11)00:56:08:406
00:59:37.532 : en:(12)00:59:37:532
01:04:29.657 : en:(13)01:04:29:657
01:10:05.658 : en:(14)01:10:05:658
01:15:32.152 : en:(15)01:15:32:152
01:18:31.039 : en:(16)01:18:31:039
01:24:49.667 : en:(17)01:24:49:667

pb.wtf



Скачать Лок через торрент http://pic.kartinco.top/images/7/5mjso.jpg Скачать фильм Лок через торрент бесплантно в хорошем качестве Описание: Айвен Лок живет размеренной жизнью и очень много работает, чтобы добиться успеха. Завтрашний день — один из важнейших в его ... 7.6 10 16
Торрент: Зарегистрирован [2014-10-02 17:04] · скачан: 495 раз
Статус: √ проверено
Размер: 1.46 GB
Как cкачать? Как скачать Лок через торрент | UTorrent

% Раздел Тема Автор DL S | L
Фильмы [HD 720p, 1080p] (Хороший звук DUB, MVO) [ 9.15 GB ] Лок / Locke [2013 BDRip 1080p MVO / Baibako / Гараж + VO [R.A.I.M] от R.G. HD-Films Ворон Скачать
1 | 0
Зарубежные сериалы [ 9.58 GB ] Замок и ключ / Ключи Локков / Locke & Key / Сезон: 1 / Серии: 1-10 из 10 [2020 WEB-DL 720p] MVO [LostFilm] bober100 Скачать
2 | 0
Зарубежные сериалы [ 20.71 GB ] Замок и ключ / Ключи Локков / Locke & Key / Сезон: 1 / Серии: 1-10 из 10 [2020 WEB-DL 1080p] MVO [TVShows] bober100 Скачать
1 | 0
Зарубежные сериалы [ 9.58 GB ] Замок и ключ / Ключи Локков / Locke & Key / Сезон: 1 / Серии: 1-10 из 10 [2020 WEB-DL 720p] MVO [NewStudio] bober100 Скачать
1 | 0
Зарубежные сериалы [ 6.61 GB ] Замок и ключ / Ключи Локков / Locke & Key / Сезон: 1 / Серии: 1-10 из 10 [2020 WEB-DLRip] MVO [LostFilm] bober100 Скачать
3 | 0
T Фильмы (Blu-ray, BD-Remux, HDDVD) [ 20.99 GB ] Лок / Locke [2013 Blu-Ray Remux DUB MVO VO] кэп Скачать
1 | 0
Фильмы (Blu-ray, BD-Remux, HDDVD) [ 36.78 GB ] Толкачи / Наседки / Торговцы наркотой / Клокеры / Clockers [1995 Blu-ray Disc ] MVO + MVO + AVO + Sub Rus + Original Eng Ворон Скачать
1 | 0


Последний раз редактировалось: potroks (2014-10-02 17:06), всего редактировалось 1 раз

28-11-2019 20:33  

Отключить всю рекламу на сайте

02-10-2014 17:06 Лок Скачать торрент  

лучшая озвучка на данный моментpb.wtf



03-10-2014 14:18 Лок Скачать торрент  

Такой фильм я женой могу снять в любое время . Он всю дорогу едет в машине . Это пиз ,,, , Жалко времени(pb.wtf



04-10-2014 05:36 Лок Скачать торрент  

dumo4ek писал(а):

Такой фильм я женой могу снять в любое время . Он всю дорогу едет в машине . Это пиз ,,, , Жалко времени(

ну а чо снимай пАсмотримpb.wtf



04-10-2014 13:32 Лок Скачать торрент  

фильм ....авно :zay: :zay:pb.wtf



31-01-2015 15:37 Лок Скачать торрент  

ребят, да вы гоните, отличный фильм, не для всехpb.wtf



    Дорогой пользователь! Огромная просьба, поблагодарите релизера, оцените раздачу и оставьте свои комментарий, если Вы скачали Лок через торрент бесплатно! Внесите свою лепту в развитие PiratBit!
    Комментировать посты могут только пользователи прошедшие не сложную регистрацию
    Показать сообщения:    

    Лок через торрент
    Скачать бесплатно Лок
    Лок скачать торрент
    Лок смотреть онлайн
    Cкачать фильм Лок бесплатно
    Лок скачать торрент в хорошем качестве
    Лок смотреть онлайн бесплатно в хорошем качестве


    Вы не можете начинать темы
    Вы не можете отвечать на сообщения
    Вы не можете редактировать свои сообщения
    Вы не можете удалять свои сообщения
    Вы не можете голосовать в опросах
    Вы не можете прикреплять файлы к сообщениям
    Вы можете скачивать файлы