Ссылка на приватное зеркало нашего сайта всего за 1$. Внимание количество ограничено!!!

2 сезон

iTunes

1 сезон

1

iTunes

iTunes

iTunes

1 сезон

RePack

30

ИГРА 18+

pack

ВАЖНО

!!Акция!!

Alien_RageХит недели

RePack

MK11
pack

Забери бонус

RePack

jed

!!Акция!!

Alien_Rage

RePack

fifa19

RePack

Assassins Creed: Odyssey

RePack

NEED FOR SPEED™ PAYBACK

4 сезон

9 сезон

Бесстыжие 9 сезон

Все сериалы

все сериалы на PB.wtf

RePack

FAR CRY 5
  

Местный / The Homesman (Томми Ли Джонс) [2014, драма, вестерн, HDRip, Любительский (двухголосый)[Сладкая парочка] pb.wtf

Местный через торрент pb.wtf

Размер: 2.05 GB | Добавлен: 6 лет назад | Торрент скачан:217 раз
Скачать  

03-10-2014 18:21 Местный Скачать торрент  

Местный / The Homesman


Год выпуска: 2014
Страна: США, Франция
Жанр:драма, вестерн
Продолжительность:02:02:32
Перевод:Любительский (двухголосый)[Сладкая парочка]
Режиссер:Томми Ли Джонс

  • В ролях:

    Томми Ли Джонс (George Briggs), Хилари Суэнк (Mary Bee Cuddy), Грэйс Гаммер (Arabella Sours), Миранда Отто (Theoline Belknapp), Соня Рихтер (Gro Svendsen), Давид Денсик (Thor Svendsen), Джон Литгоу (Reverend Dowd), Тим Блейк Нельсон (The Freighter), Джеймс Спэйдер (Aloysius Duffy), Уильям Фихтнер (Vester Belknap), Джесси Племонс (Garn Sours), Ивэн Джонс (Bob Giffin)

  • Описание:
    События фильма разворачиваются во времена освоения американского Запада. Главной героине надо перевезти трех умственно неполноценных женщин из Небраски в Айову. Сопроводить опасную, требующую от всех большого мужества экспедицию нанят человек вне закона...

  • Мировая премьера:18 мая 2014

    Качество: HDRip
    Формат:AVI
    Видео кодек: XviD
    Аудио кодек:AC3
    Видео: XviD, 720x304 (2.35:1), 1940 kbps, 24 fps, 0,369 bpp
    Аудио: AC3 / 5.1 / 48 kHz / 448 kbps / 16 bit


    Код:

    General
    Complete name                            : D:\Торенты\Mestnyj.2014.P2.HDRip.2100MB.avi
    Format                                   : AVI
    Format/Info                              : Audio Video Interleave
    File size                                : 2.05 GiB
    Duration                                 : 2h 2mn
    Overall bit rate                         : 2 398 Kbps
    Writing application                      : VirtualDubMod 1.5.10.2 (build 2540/release)
    Writing library                          : VirtualDubMod build 2540/release

    Video
    ID                                       : 0
    Format                                   : MPEG-4 Visual
    Format profile                           : Advanced Simple@L5
    Format settings, BVOP                    : 2
    Format settings, QPel                    : No
    Format settings, GMC                     : No warppoints
    Format settings, Matrix                  : Default (MPEG)
    Codec ID                                 : XVID
    Codec ID/Hint                            : XviD
    Duration                                 : 2h 2mn
    Bit rate                                 : 1 941 Kbps
    Width                                    : 720 pixels
    Height                                   : 304 pixels
    Display aspect ratio                     : 2.35:1
    Frame rate                               : 24.000 fps
    Color space                              : YUV
    Chroma subsampling                       : 4:2:0
    Bit depth                                : 8 bits
    Scan type                                : Progressive
    Compression mode                         : Lossy
    Bits/(Pixel*Frame)                       : 0.369
    Stream size                              : 1.66 GiB (81%)
    Writing library                          : XviD 1.2.1 (UTC 2008-12-04)

    Audio
    ID                                       : 1
    Format                                   : AC-3
    Format/Info                              : Audio Coding 3
    Mode extension                           : CM (complete main)
    Codec ID                                 : 2000
    Duration                                 : 2h 2mn
    Bit rate mode                            : Constant
    Bit rate                                 : 448 Kbps
    Channel(s)                               : 6 channels
    Channel positions                        : Front: L C R, Side: L R, LFE
    Sampling rate                            : 48.0 KHz
    Bit depth                                : 16 bits
    Compression mode                         : Lossy
    Stream size                              : 393 MiB (19%)
    Alignment                                : Split accross interleaves
    Interleave, duration                     : 42 ms (1.00 video frame)
    Interleave, preload duration             : 500 ms

    Скриншоты:

    Каталог Новинок (Фильмы-трейлеры, Игры, Сериалы, Мультфильмы)


    © Оформление by Ravenpb.wtf



  • Скачать Местный через торрент http://pic.kartinco.top/images/6/stazu.jpg Скачать фильм Местный через торрент бесплантно в хорошем качестве Описание:События фильма разворачиваются во времена освоения американского Запада. Главной героине надо перевезти трех умственно ... 8.9 10 12
    Торрент: Зарегистрирован [2014-10-03 18:21] · скачан: 217 раз
    Статус: T временная
    Размер: 2.05 GB
    Как cкачать? Как скачать Местный через торрент | qTorrent

    % Раздел Тема Автор DL S | L
    T Фильмы 2014 (Звук TS, Cam, VO, DVO) [ 1.46 GB ] Местный / The Homesman [2014 HDRip Любительский [Сладкая парочка] Ворон Скачать
    1 | 0
    T Фильмы [HD 720p, 1080p] (Звук Cam, VO, DVO) [ 5.3 GB ] Местный / The Homesman [2014 BDRip 720p Любительский [Сладкая парочка] Ворон Скачать
    1 | 0

    28-11-2019 20:33  

    Отключить всю рекламу на сайте

      Дорогой пользователь! Огромная просьба, поблагодарите релизера, оцените раздачу и оставьте свои комментарий, если Вы скачали Местный через торрент бесплатно! Внесите свою лепту в развитие PiratBit!
      Комментировать посты могут только пользователи прошедшие не сложную регистрацию
      Показать сообщения:    

      Местный через торрент
      Скачать бесплатно Местный
      Местный скачать торрент
      Местный смотреть онлайн
      Cкачать фильм Местный бесплатно
      Местный скачать торрент в хорошем качестве
      Местный смотреть онлайн бесплатно в хорошем качестве


      Вы не можете начинать темы
      Вы не можете отвечать на сообщения
      Вы не можете редактировать свои сообщения
      Вы не можете удалять свои сообщения
      Вы не можете голосовать в опросах
      Вы не можете прикреплять файлы к сообщениям
      Вы можете скачивать файлы