MEGA SALE -50% FORZA HORIZON 4 ULTIMATE+ВСЕ DLC+ОНЛАЙН всего за 599р. 299 руб. (супер цена). Внимание количество ограничено!!!

iTunes

1+1

iTunes

мы

iTunes

1

iTunes

Чернобыль

1 сезон

Ральф против интернета

Лицензия

ПШазам

Лицензия

Игра престолов

Лицензия

30
pack

ВАЖНО

!!Акция!!

Alien_RageХит недели

RePack

Resident Evil 21

ИГРА 18+

pack

RePack

Metro:Exodus

!!Акция!!

Alien_Rage

RePack

fifa19

RePack

Assassins Creed: Odyssey

RePack

NEED FOR SPEED™ PAYBACK

3 сезон

9 сезон

Бесстыжие 9 сезон

Все сериалы

все сериалы на PB.wtf

RePack

FAR CRY 5
Ребята, катастрофически не хватает 7730р. для оплаты серверов за ИЮЛЬ (всвязи с блокировками трафик упал в 3 раза), 1-2р., выручайте.
  

Добро пожаловать в Zомбилэнд / Zombieland (Рубен Флейшер) [2009, ужасы, комедия, BDRip-AVC] DUB Лицензия pb.wtf

Добро пожаловать в Zомбилэнд через торрент pb.wtf

Размер: 1.46 GB | Добавлен: 4 года 10 мес. назад | Торрент скачан:478 раз
Скачать  

03-10-2014 22:14 Добро пожаловать в Zомбилэнд Скачать торрент  

Добро пожаловать в Zомбилэнд / Zombieland
«Живой мертвому не товарищ»

Год выпуска: 2009
Страна: США
Жанр:ужасы, комедия
Продолжительность:01:27:42
Перевод:Дубляж - [Лицензия]
Режиссер:Рубен Флейшер

  • В ролях:

    Джесси Айзенберг (Columbus), Вуди Харрельсон (Tallahassee), Эмма Стоун (Wichita), Эбигейл Бреслин (Little Rock), Билл Мюррей (Bill Murray), Эмбер Хёрд (406), Дерек Граф (Clown Zombie), Сизар Агирр (Customer at the Pump, в титрах не указан), Джейкоб Дж. Экинс (Banjo Zombie, в титрах не указан), Хантер Элдридж (Best Man, в титрах не указан), Элль Александр (Zombie Meter Maid, в титрах не указана), Cameron Alpert (Zombie, в титрах не указан)

  • Описание:
    После нашествия зомби в США небольшая группа выживших скитается по стране от побережья к побережью, сражаясь с живыми мертвецами. Они решают остановиться в парке развлечений, надеясь, что там будут в безопасности.

  • Мировая премьера:25 сентября 2009


    Качество: BDRip-AVCАвтор рипа: by Raven
    Формат:MKV
    Видео кодек: AVC
    Аудио кодек:AC3
    Видео: AVC, 1024x426 (2.40:1), 1932 kbps, 23,976 fps, 0,185 bpp
    Аудио: русский / AC3 / 5.1 / 48 kHz / 448 kbps / 16 bit ||


    Код:

    x264 [info]: frame I:1346  Avg QP:14.56  size: 75331
    x264 [info]: frame P:30341 Avg QP:18.25  size: 23637
    x264 [info]: frame B:94480 Avg QP:21.09  size:  4610

    Код:

    General
    Unique ID                                : 210965080151187286587390126884651920783 (0x9EB6658191C5AE148C7769DCA50DED8F)
    Complete name                            : D:\Торенты\Раздачи\Добро пожаловать в Zомбилэнд_2009_ HDRip-AVC_by Raven.mkv
    Format                                   : Matroska
    Format version                           : Version 4 / Version 2
    File size                                : 1.46 GiB
    Duration                                 : 1h 27mn
    Overall bit rate                         : 2 381 Kbps
    Movie name                               : Автор рипа: Raven (ПиратБит.нет)
    Encoded date                             : UTC 2014-10-03 21:58:59
    Writing application                      : mkvmerge v7.1.0 ('Good Love') 64bit built on Jul 27 2014 13:06:55
    Writing library                          : libebml v1.3.0 + libmatroska v1.4.1
    DURATION                                 : 01:27:42.528000000
    NUMBER_OF_FRAMES                         : 164454
    NUMBER_OF_BYTES                          : 294701568
    _STATISTICS_WRITING_APP                  : mkvmerge v7.1.0 ('Good Love') 64bit built on Jul 27 2014 13:06:55
    _STATISTICS_WRITING_DATE_UTC             : 2014-10-03 21:58:59
    _STATISTICS_TAGS                         : BPS DURATION NUMBER_OF_FRAMES NUMBER_OF_BYTES
    Attachment                               : Yes

    Video
    ID                                       : 1
    Format                                   : AVC
    Format/Info                              : Advanced Video Codec
    Format profile                           : High@L4.1
    Format settings, CABAC                   : Yes
    Format settings, ReFrames                : 7 frames
    Codec ID                                 : V_MPEG4/ISO/AVC
    Duration                                 : 1h 27mn
    Bit rate                                 : 1 932 Kbps
    Width                                    : 1 024 pixels
    Height                                   : 426 pixels
    Display aspect ratio                     : 2.40:1
    Frame rate                               : 23.976 fps
    Color space                              : YUV
    Chroma subsampling                       : 4:2:0
    Bit depth                                : 8 bits
    Scan type                                : Progressive
    Bits/(Pixel*Frame)                       : 0.185
    Stream size                              : 1.15 GiB (79%)
    Title                                    : Автор рипа: Raven (ПиратБит.нет)
    Writing library                          : x264 core 130 r2273 b3065e6
    Encoding settings                        : cabac=1 / ref=7 / deblock=1:-2:-2 / analyse=0x3:0x133 / me=umh / subme=10 / psy=1 / psy_rd=1.00:0.00 / mixed_ref=1 / me_range=32 / chroma_me=1 / trellis=2 / 8x8dct=1 / cqm=0 / deadzone=21,11 / fast_pskip=0 / chroma_qp_offset=-2 / threads=6 / lookahead_threads=1 / sliced_threads=0 / nr=0 / decimate=0 / interlaced=0 / bluray_compat=0 / constrained_intra=0 / bframes=8 / b_pyramid=2 / b_adapt=2 / b_bias=0 / direct=3 / weightb=1 / open_gop=0 / weightp=2 / keyint=240 / keyint_min=23 / scenecut=40 / intra_refresh=0 / rc_lookahead=60 / rc=2pass / mbtree=1 / bitrate=1932 / ratetol=1.0 / qcomp=0.60 / qpmin=0 / qpmax=69 / qpstep=4 / cplxblur=20.0 / qblur=0.5 / ip_ratio=1.40 / aq=1:0.80
    Language                                 : Russian
    Default                                  : Yes
    Forced                                   : No

    Audio
    ID                                       : 2
    Format                                   : AC-3
    Format/Info                              : Audio Coding 3
    Mode extension                           : CM (complete main)
    Codec ID                                 : A_AC3
    Duration                                 : 1h 27mn
    Bit rate mode                            : Constant
    Bit rate                                 : 448 Kbps
    Channel(s)                               : 6 channels
    Channel positions                        : Front: L C R, Side: L R, LFE
    Sampling rate                            : 48.0 KHz
    Bit depth                                : 16 bits
    Compression mode                         : Lossy
    Stream size                              : 281 MiB (19%)
    Title                                    : Дубляж
    Language                                 : Russian
    Default                                  : Yes
    Forced                                   : No

    Скриншоты:

    Каталог Новинок (Фильмы-трейлеры, Игры, Сериалы, Мультфильмы)


    © Оформление by Ravenpb.wtf



  • Скачать Добро пожаловать в Zомбилэнд через торрент http://pic.kartinco.top/images/6/stazu.jpg Скачать фильм Добро пожаловать в Zомбилэнд через торрент бесплантно в хорошем качестве Описание:После нашествия зомби в США небольшая группа выживших скитается по стране от побережья к побережью, сражаясь с живыми мертвецами. ... 9.3 10 12
    Info! Золотая раздача, скачанное не засчитывается.
    Торрент: Зарегистрирован [2014-10-03 22:28] · скачан: 478 раз
    Статус: √ проверено
    Размер: 1.46 GB
    Как cкачать? Как скачать Добро пожаловать в Zомбилэнд через торрент | qTorrent



    Последний раз редактировалось: Ворон (2014-10-03 22:47), всего редактировалось 1 раз


    >> Регистрируемся здесь <<






    Отзывы и комментарии о схеме читаем и пишем здесь: ---> Отзывы и комментарии о схеме

    Новые благодарочки в телеграм довольных пользователей:
    скриншот   скриншот   скриншот   скриншот   скриншот

    03-10-2014 22:41 Добро пожаловать в Zомбилэнд Скачать торрент  

    Прикольный сэмпл.Аж захотелось посмотреть. pb.wtf



    03-10-2014 22:53 Добро пожаловать в Zомбилэнд Скачать торрент  

    Tiberiumsun69, спецом выбирал, смотри не пожалеешь.pb.wtf



      Дорогой пользователь! Огромная просьба, поблагодарите релизера, оцените раздачу и оставьте свои комментарий, если Вы скачали Добро пожаловать в Zомбилэнд через торрент бесплатно! Внесите свою лепту в развитие PiratBit!
      Комментировать посты могут только пользователи прошедшие не сложную регистрацию
      Показать сообщения:    

      Добро пожаловать в Zомбилэнд через торрент
      Скачать бесплатно Добро пожаловать в Zомбилэнд
      Добро пожаловать в Zомбилэнд скачать торрент
      Добро пожаловать в Zомбилэнд смотреть онлайн
      Cкачать фильм Добро пожаловать в Zомбилэнд бесплатно
      Добро пожаловать в Zомбилэнд скачать торрент в хорошем качестве
      Добро пожаловать в Zомбилэнд смотреть онлайн бесплатно в хорошем качестве


      Вы не можете начинать темы
      Вы не можете отвечать на сообщения
      Вы не можете редактировать свои сообщения
      Вы не можете удалять свои сообщения
      Вы не можете голосовать в опросах
      Вы не можете прикреплять файлы к сообщениям
      Вы можете скачивать файлы