новый адрес
Ссылка на приватное зеркало всего за 1$. Внимание количество ограничено!!!

iTunes

1+1

iTunes

мы

WEB-DL

1

iTunes

Чернобыль

iTunes

Ральф против интернета

Лицензия

ПШазам

Лицензия

Оно 2

Лицензия

30
pack

Вам бонус

ВАЖНО

!!Акция!!

Alien_RageХит недели

RePack

Resident Evil 21

ИГРА 18+

pack

RePack

jed

!!Акция!!

Alien_Rage

RePack

fifa19

RePack

Assassins Creed: Odyssey

RePack

NEED FOR SPEED™ PAYBACK

3 сезон

9 сезон

Бесстыжие 9 сезон

Все сериалы

все сериалы на PB.wtf

RePack

FAR CRY 5
Ребята, катастрофически не хватает 1900р. для оплаты серверов за Октябрь (всвязи с блокировками трафик упал в 3 раза), 1-2р., выручайте.
  

Том на ферме / Tom à la ferme (Ксавье Долан) [2013, драма, триллер, HDRip, Профессиональный многоголосый] pb.wtf

Том на ферме через торрент pb.wtf

Размер: 1.45 GB | Добавлен: 5 лет 2 мес. назад | Торрент скачан:406 раз
Скачать  

04-10-2014 08:08 Том на ферме Скачать торрент  

Том на ферме / Tom à la ferme
«What you don't know WILL hurt you»

Год выпуска: 2013
Страна: Канада, Франция
Жанр:драма, триллер
Продолжительность:01:42:50
Перевод:Профессиональный многоголосый
Режиссер:Ксавье Долан

  • В ролях:

    Ксавье Долан (Tom), Пьер-Ив Кардинал (Francis), Лизе Рой (Agathe), Эвелин Брошу (Sarah), Мануэль Тадрос (Le barman), Жак Лавалли (Le prêtre), Энн Карон (Le docteur), Оливье Морин (Paul), Жоанна Левелье (Employée à la station-service), Матьё Руа (Homme au dépanneur), Калеб Лэндри Джонс (Guillaume, в титрах не указан), Мелоди Симар (в титрах не указана)

  • Описание:
    Том приезжает в деревню - проститься со своим другом и прочитать речь на похоронах. Припарковав машину рядом с коровником, он стучится в дом, где раньше жил погибший. Но Том еще не подозревает, какая опасность ждет его за дверью.

  • Мировая премьера:2 сентября 2013

    Качество: HDRip
    Формат:AVI
    Видео кодек: XviD
    Аудио кодек:AC3
    Видео: XviD, 720x384 (1.875), 1818 kbps, 24 fps, 0,274 bpp
    Аудио: AC3 / 2.0 / 48 kHz / 192 kbps / 16 bit


    Код:

    General
    Complete name                            : D:\Торенты\Tom.na.ferme.2013.P.HDRip.1.46Gb.avi
    Format                                   : AVI
    Format/Info                              : Audio Video Interleave
    File size                                : 1.45 GiB
    Duration                                 : 1h 42mn
    Overall bit rate                         : 2 020 Kbps
    Writing application                      : VirtualDubMod 1.5.10.2 (build 2540/release)
    Writing library                          : VirtualDubMod build 2540/release

    Video
    ID                                       : 0
    Format                                   : MPEG-4 Visual
    Format profile                           : Advanced Simple@L5
    Format settings, BVOP                    : 2
    Format settings, QPel                    : No
    Format settings, GMC                     : No warppoints
    Format settings, Matrix                  : Default (MPEG)
    Codec ID                                 : XVID
    Codec ID/Hint                            : XviD
    Duration                                 : 1h 42mn
    Bit rate                                 : 1 819 Kbps
    Width                                    : 720 pixels
    Height                                   : 384 pixels
    Display aspect ratio                     : 1.875
    Frame rate                               : 24.000 fps
    Color space                              : YUV
    Chroma subsampling                       : 4:2:0
    Bit depth                                : 8 bits
    Scan type                                : Progressive
    Compression mode                         : Lossy
    Bits/(Pixel*Frame)                       : 0.274
    Stream size                              : 1.31 GiB (90%)
    Writing library                          : XviD 1.2.1 (UTC 2008-12-04)

    Audio
    ID                                       : 1
    Format                                   : AC-3
    Format/Info                              : Audio Coding 3
    Mode extension                           : CM (complete main)
    Codec ID                                 : 2000
    Duration                                 : 1h 42mn
    Bit rate mode                            : Constant
    Bit rate                                 : 192 Kbps
    Channel(s)                               : 2 channels
    Channel positions                        : Front: L R
    Sampling rate                            : 48.0 KHz
    Bit depth                                : 16 bits
    Compression mode                         : Lossy
    Stream size                              : 141 MiB (10%)
    Alignment                                : Split accross interleaves
    Interleave, duration                     : 42 ms (1.00 video frame)
    Interleave, preload duration             : 500 ms

    Скриншоты:

    Каталог Новинок (Фильмы-трейлеры, Игры, Сериалы, Мультфильмы)


    © Оформление by Ravenpb.wtf



  • Скачать Том на ферме через торрент http://pic.kartinco.top/images/6/stazu.jpg Скачать фильм Том на ферме через торрент бесплантно в хорошем качестве Описание:Том приезжает в деревню - проститься со своим другом и прочитать речь на похоронах. Припарковав машину рядом с коровником, он ... 8.4 10 14
    Торрент: Зарегистрирован [2014-10-04 08:08] · скачан: 406 раз
    Статус: √ проверено
    Размер: 1.45 GB
    Как cкачать? Как скачать Том на ферме через торрент | qTorrent

    % Раздел Тема Автор DL S | L
    Фильмы (Blu-ray, BD-Remux, HDDVD) [ 22.85 GB ] Том на ферме / Tom à la ferme [2013 BD Remux 1080р] MVO bober100 Скачать
    1 | 0

    28-11-2019 20:33  

    Отключить всю рекламу на сайте

      Дорогой пользователь! Огромная просьба, поблагодарите релизера, оцените раздачу и оставьте свои комментарий, если Вы скачали Том на ферме через торрент бесплатно! Внесите свою лепту в развитие PiratBit!
      Комментировать посты могут только пользователи прошедшие не сложную регистрацию
      Показать сообщения:    

      Том на ферме через торрент
      Скачать бесплатно Том на ферме
      Том на ферме скачать торрент
      Том на ферме смотреть онлайн
      Cкачать фильм Том на ферме бесплатно
      Том на ферме скачать торрент в хорошем качестве
      Том на ферме смотреть онлайн бесплатно в хорошем качестве


      Вы не можете начинать темы
      Вы не можете отвечать на сообщения
      Вы не можете редактировать свои сообщения
      Вы не можете удалять свои сообщения
      Вы не можете голосовать в опросах
      Вы не можете прикреплять файлы к сообщениям
      Вы можете скачивать файлы