2 сезон

iTunes

MVO

1

2 сезон

iTunes

iTunes

1 сезон

RePack

30

Новинка

ВАЖНО

ИГРА 18+

pack

RePack

MK11
pack

Легкие деньги

RePack

jed

RePack

fifa19

RePack

RDR2

RePack

NEED FOR SPEED™ PAYBACK

4 сезон

9 сезон

Бесстыжие 9 сезон

Все сериалы

все сериалы на PB.wtf

RePack

FAR CRY 5

Anonymous, доброе утро, мы не успеваем собрать деньги на оплату серверов за декабрь и январь, помогите нам пожалуйста в это трудное время. В качестве благодарности мы отключим Вам всю рекламу на сайте (укажите свой ник в строку Ваше имя)!

×
  
Magnet ссылка

Не грози южному централу, попивая сок у себя в квартале / Don't Be a Menace to South Central While Drinking Your Juice in the Hood (Пэрис Барклай / Paris Barclay) [1996, США, комедия, криминал, BDRip 1080p / 60 FPS, Профессиональный многоголосый pb.wtf

Не грози южному централу, попивая сок у себя в квартале через торрент pb.wtf

Размер: 9.05 GB | Добавлен: 6 лет 3 мес. назад | Торрент скачан:130 раз
Скачать  

04-10-2014 10:35 Не грози южному централу, попивая сок у себя в квартале Скачать торрент  


Название: Не грози южному централу, попивая сок у себя в квартале
Оригинальное название: Don't Be a Menace to South Central While Drinking Your Juice in the Hood
Год выпуска: 1996
Страна: США
Жанр: комедия, криминал
Продолжительность: 01:29:26
Перевод: Профессиональный многоголосый
Субтитры: русские (Полные), английские (Полные)
Режиссер: Пэрис Барклай / Paris Barclay
В ролях: Шон Уайанс (Ashtray), Марлон Уайанс (Loc Dog), Трэйси Черелл Джонс (Dashiki), Крис Спенсер (Preach), Сули МакКалло (Crazy Legs), Даррел Хит (Toothpick), Хелен Мартин (Loc Dog's Grandma), Айзиа Барнс (Doo Rag), Ламард Дж. Тейт (Ashtray's Father), Кинен Айвори Уайанс (Mailman), Кит Моррис (Dave the Crackhead), Крэйг Уайанс (Thug #1)
Описание:
Молодой афроамериканец по прозвищу Пепельница переезжает в Южный Централ, Лос-Анджелес к своему отцу. Пепельница гордится тем, что они с отцом выглядят ровесниками, это, по его мнению, «очень круто». А ещё, он старше своего папы на два года. Гордится он и своей бабушкой, которая в свои-то преклонные годы покуривает и не стесняется крепких словечек. Вскоре Пепельница встречается со своим кузеном по прозвищу Лок Дог. Этот парень - гангстер, в его личном арсенале не только пистолеты и автомат, но и ядерная боеголовка советского производства - «для самозащиты». Пепельница должен выбрать свой дальнейший путь в жизни: он может быть «просто хорошим чернокожим» или стать «опасным чернокожим», примкнув к банде своего кузена.
Рейтинг
kinopoisk.ru: 7.215 (40 947)
imdb.com: 6.60 (31 463)
MPAA: R - Лицам до 17 лет обязательно присутствие взрослого
Автор рипа:Tiberiumsun69

Качество: BDRip 1080p / 60 FPS
Формат: MKV
Видео кодек: AVC
Аудио кодек:AC3
Видео: AVC, 1920x1080, 12785 kbps, 59,940 fps
Аудио №1: русский / AC3 / 5.1 / 48 kHz / 384 kbps / 16 bit |Многоголосый, закадровый West video|
Аудио №2: русский / AC3 / 5.1 / 48 kHz / 384 kbps / 16 bit |Многоголосый, закадровый West video (переиздание)|
Аудио №3: английский / AC3 / 5.1 / 48 kHz / 640 kbps / 16 bit
Навигация по главам: есть

General
Unique ID : 239357132019229108319723421885527915441 (0xB41281BD5F69D907A0220C77FBBE7BB1)
Complete name : A:\1080p 60fps\Не грози южному централу 1080p 60fps.mkv
Format : Matroska
Format version : Version 4 / Version 2
File size : 9.05 GiB
Duration : 1h 29mn
Overall bit rate : 14.5 Mbps
Movie name : Tiberiumsun69
Encoded date : UTC 2014-10-03 23:22:57
Writing application : mkvmerge v6.9.1 ('Blue Panther') 64bit built on Apr 18 2014 18:23:38
Writing library : libebml v1.3.0 + libmatroska v1.4.1

Video
ID : 1
Format : AVC
Format/Info : Advanced Video Codec
Format profile : High@L4.1
Format settings, CABAC : Yes
Format settings, ReFrames : 4 frames
Codec ID : V_MPEG4/ISO/AVC
Duration : 1h 29mn
Bit rate : 12.8 Mbps
Width : 1 920 pixels
Height : 1 080 pixels
Display aspect ratio : 16:9
Frame rate : 59.940 fps
Color space : YUV
Chroma subsampling : 4:2:0
Bit depth : 8 bits
Scan type : Progressive
Bits/(Pixel*Frame) : 0.103
Stream size : 7.99 GiB (88%)
Writing library : x264 core 130 r2273 b3065e6
Encoding settings : cabac=1 / ref=4 / deblock=1:0:0 / analyse=0x3:0 / me=umh / subme=9 / psy=1 / psy_rd=0.00:0.00 / mixed_ref=1 / me_range=42 / chroma_me=0 / trellis=1 / 8x8dct=1 / cqm=0 / deadzone=21,11 / fast_pskip=0 / chroma_qp_offset=0 / threads=12 / lookahead_threads=1 / sliced_threads=0 / nr=0 / decimate=0 / interlaced=0 / bluray_compat=0 / constrained_intra=0 / bframes=5 / b_pyramid=2 / b_adapt=2 / b_bias=0 / direct=1 / weightb=1 / open_gop=0 / weightp=2 / keyint=594 / keyint_min=59 / scenecut=40 / intra_refresh=0 / rc=crf / mbtree=0 / crf=16.0 / qcomp=0.60 / qpmin=0 / qpmax=69 / qpstep=4 / ip_ratio=1.40 / pb_ratio=1.30 / aq=1:0.90
Language : English
Default : Yes
Forced : No

Audio #1
ID : 2
Format : AC-3
Format/Info : Audio Coding 3
Mode extension : CM (complete main)
Codec ID : A_AC3
Duration : 1h 29mn
Bit rate mode : Constant
Bit rate : 384 Kbps
Channel(s) : 6 channels
Channel positions : Front: L C R, Side: L R, LFE
Sampling rate : 48.0 KHz
Bit depth : 16 bits
Compression mode : Lossy
Stream size : 246 MiB (3%)
Title : Многоголосный, закадровый West video
Language : Russian
Default : Yes
Forced : No

Audio #2
ID : 3
Format : AC-3
Format/Info : Audio Coding 3
Mode extension : CM (complete main)
Codec ID : A_AC3
Duration : 1h 29mn
Bit rate mode : Constant
Bit rate : 384 Kbps
Channel(s) : 6 channels
Channel positions : Front: L C R, Side: L R, LFE
Sampling rate : 48.0 KHz
Bit depth : 16 bits
Compression mode : Lossy
Stream size : 246 MiB (3%)
Title : Многоголосный, закадровый West video (переиздание)
Language : Russian
Default : No
Forced : No

Audio #3
ID : 4
Format : AC-3
Format/Info : Audio Coding 3
Mode extension : CM (complete main)
Codec ID : A_AC3
Duration : 1h 29mn
Bit rate mode : Constant
Bit rate : 640 Kbps
Channel(s) : 6 channels
Channel positions : Front: L C R, Side: L R, LFE
Sampling rate : 48.0 KHz
Bit depth : 16 bits
Compression mode : Lossy
Stream size : 409 MiB (4%)
Title : Оригинал
Language : English
Default : No
Forced : No

Text #1
ID : 5
Format : UTF-8
Codec ID : S_TEXT/UTF8
Codec ID/Info : UTF-8 Plain Text
Title : Полные
Language : Russian
Default : No
Forced : No

Text #2
ID : 6
Format : UTF-8
Codec ID : S_TEXT/UTF8
Codec ID/Info : UTF-8 Plain Text
Title : Полные
Language : English
Default : No
Forced : No

Menu
00:00:00.000 : en:Chapter 1
00:09:19.025 : en:Chapter 2
00:12:44.998 : en:Chapter 3
00:19:00.339 : en:Chapter 4
00:26:09.735 : en:Chapter 5
00:31:05.797 : en:Chapter 6
00:36:35.460 : en:Chapter 7
00:40:58.489 : en:Chapter 8
00:48:38.415 : en:Chapter 9
00:53:32.476 : en:Chapter 10
00:56:08.465 : en:Chapter 11
01:02:25.108 : en:Chapter 12
01:09:05.341 : en:Chapter 13
01:12:58.040 : en:Chapter 14
01:17:27.142 : en:Chapter 15
Просьба к переливающим на другие сайты, в оформлении указывайте пожалуйста авторство рипа - Tiberiumsun69
Поблагодарить релизера! Авторская группа в ВК
pb.wtf



Скачать Не грози южному централу, попивая сок у себя в квартале через торрент http://i67.fastpic.ru/big/2014/1004/0b/f9aee628b9648a37637fb211fc77e20b.png Скачать фильм Не грози южному централу, попивая сок у себя в квартале через торрент бесплантно в хорошем качестве Описание: Молодой афроамериканец по прозвищу Пепельница переезжает в Южный Централ, Лос-Анджелес к своему отцу. Пепельница гордится тем, ... 9.3 10 28
Info! Золотая раздача, скачанное не засчитывается.
Торрент: Зарегистрирован [2014-10-04 10:35] · скачан: 130 раз
Статус: √ проверено
Размер: 9.05 GB
Как cкачать? Как скачать Не грози южному централу, попивая сок у себя в квартале через торрент | UTorrent



Последний раз редактировалось: Tiberiumsun69 (2018-02-07 08:23), всего редактировалось 2 раз(а)

28-11-2019 20:33  

Отключить всю рекламу на сайте

04-10-2014 10:44 Не грози южному централу, попивая сок у себя в квартале Скачать торрент  

pb.wtf



04-10-2014 10:46 Не грози южному централу, попивая сок у себя в квартале Скачать торрент  

cпасибо за отклик на просьбу!pb.wtf



01-07-2015 05:26 Не грози южному централу, попивая сок у себя в квартале Скачать торрент  

Встаньте на раздачу кто-нибудь,пожалуйста.pb.wtf



    Дорогой пользователь! Огромная просьба, поблагодарите релизера, оцените раздачу и оставьте свои комментарий, если Вы скачали Не грози южному централу, попивая сок у себя в квартале через торрент бесплатно! Внесите свою лепту в развитие PiratBit!
    Комментировать посты могут только пользователи прошедшие не сложную регистрацию
    Показать сообщения:    

    Не грози южному централу, попивая сок у себя в квартале через торрент
    Скачать бесплатно Не грози южному централу, попивая сок у себя в квартале
    Не грози южному централу, попивая сок у себя в квартале скачать торрент
    Не грози южному централу, попивая сок у себя в квартале смотреть онлайн
    Cкачать фильм Не грози южному централу, попивая сок у себя в квартале бесплатно
    Не грози южному централу, попивая сок у себя в квартале скачать торрент в хорошем качестве
    Не грози южному централу, попивая сок у себя в квартале смотреть онлайн бесплатно в хорошем качестве


    Вы не можете начинать темы
    Вы не можете отвечать на сообщения
    Вы не можете редактировать свои сообщения
    Вы не можете удалять свои сообщения
    Вы не можете голосовать в опросах
    Вы не можете прикреплять файлы к сообщениям
    Вы можете скачивать файлы