2 сезон

iTunes

MVO

1

2 сезон

iTunes

iTunes

1 сезон

RePack

30

Ultimate

ВАЖНО

ИГРА 18+

pack

RePack

MK11
pack

Легкие деньги

RePack

jed

RePack

fifa19

RePack

RDR2

RePack

NEED FOR SPEED™ PAYBACK

4 сезон

9 сезон

Бесстыжие 9 сезон

Все сериалы

все сериалы на PB.wtf

RePack

FAR CRY 5

Anonymous, добрый вечер, мы не успеваем собрать деньги на оплату серверов за декабрь и январь, помогите нам пожалуйста в это трудное время. В качестве благодарности мы отключим Вам всю рекламу на сайте (укажите свой ник в строку Ваше имя)!

×
  
Magnet ссылка

Люди Икс: Дни минувшeго будущего в 3Д / Х-Men: Days of Future Past 3D (Брайан Сингер / Bryan Singer) [2014, Фантастика, фэнтези, боевик, приключения, BDrip, 1080p] OverUnder / Вертикальная стереопара pb.wtf

Люди Икс: Дни минувшeго будущего в 3Д через торрент pb.wtf

Размер: 18.03 GB | Добавлен: 6 лет 3 мес. назад | Торрент скачан:523 раза
Скачать  

04-10-2014 15:38 Люди Икс: Дни минувшeго будущего в 3Д Скачать торрент  

Люди Икс: Дни минувшeго будущего / Х-Men: Days of Future Past

Год выпуска: 2014
Страна: США, Великобритания (20th Century Fox, TSG Entertainment, Bad Hat Harry, Marvel)
Жанр: Фантастика, фэнтези, боевик, приключения
Продолжительность: 02:11:35

Перевод: Профессиональный (дублированный)
Русские субтитры: нет
Режиссер на русском: Брайан Сингер
Режиссер на английском: Bryan Singer

В ролях: Хью Джекман, Иэн МакКеллен, Патрик Стюарт, Холли Берри, Майкл Фассбендер, Джеймс МакЭвой, Анна Пакуин, Эллен Пейдж, Шон Эшмор, Дженнифер Лоуренс, Николас Холт, Питер Динклэйдж, Омар Си, Бинбин Фань

Описание: На мутантов начинается охота с помощью самых современных технологий и применения роботов-убийц. Чтобы спасти своё будущее, главные герои вынуждены вернуться в прошлое, в семидесятые годы, когда политическое убийство развязало войну между людьми и мутантами-икс.

Сэмпл: http://sendfile.su/1030971

Качество: BDrip, 1080p
Контейнер: MKV
Формат 3D: OverUnder / Вертикальная стереопара
Порядок ракурсов: левый ракурс первый
Видео кодек: x264
Аудио кодек: DTS , AC3
Видео: AVC / High@L5.0 / 23,976 fps / 1920х1600 / 17,8 Мбит/сек
Аудио: Русский / DTS / 48 KHz / 5.1 ch / 768 Кбит/сек
Аудио 2: Английский / AC3 / 48 KHz / 5.1 ch / 640 Кбит/сек

Релиз группы: ВНИМАНИЕ ! На встроенных ТВ-плеерах работать не будет!!!

ТВ Samsung в названии которого есть надпись Ultra HD воспроизводят полные стереопары встроенными плеерами
Железные плееры на которых воспроизводятся полные стереопары:Popcorn C-200 , Dune HD Smart D1 , Dune HD DUO , Dune HD Smart H1 , Dune HD Smart B1 , Dune HD Max , Dune HD TV-303D , Dune HD Base 3D
Общее
Уникальный идентификатор : 228747921213216982168674582663389004052 (0xAC173F432184896BADA6EFA0AA504114)
Полное имя : E:\закачки\Х-Men Days of Future Past.Rip by SeRoGa00.mkv
Формат : Matroska
Версия формата : Version 2
Размер файла : 18,0 Гбайт
Продолжительность : 2 ч. 11 м.
Общий поток : 19,6 Мбит/сек
Дата кодирования : UTC 2014-10-04 14:33:42
Программа кодирования : mkvmerge v3.4.0 ('Rapunzel') сборка от May 15 2010 09:38:20
Библиотека кодирования : libebml v0.8.0 + libmatroska v0.9.0

Видео
Идентификатор : 1
Формат : AVC
Формат/Информация : Advanced Video Codec
Профиль формата : High@L5.0
Параметр CABAC формата : Да
Параметр ReFrames формата : 4 кадра
Идентификатор кодека : V_MPEG4/ISO/AVC
Продолжительность : 2 ч. 11 м.
Битрейт : 17,8 Мбит/сек
Ширина : 1920 пикселей
Высота : 1600 пикселей
Соотношение сторон : 1,200
Частота кадров : 23,976 кадра/сек
Цветовое пространство : YUV
Субдискретизация насыщенности : 4:2:0
Битовая глубина : 8 бит
Тип развёртки : Прогрессивная
Бит/(Пиксели*Кадры) : 0.242
Размер потока : 16,4 Гбайт (91%)
Заголовок : Rip by SeRoGa00
Библиотека кодирования : x264 core 142 r2431 ac76440
Настройки программы : cabac=1 / ref=4 / deblock=1:-3:-3 / analyse=0x3:0x113 / me=umh / subme=9 / psy=1 / psy_rd=1.00:0.15 / mixed_ref=1 / me_range=24 / chroma_me=1 / trellis=2 / 8x8dct=1 / cqm=0 / deadzone=21,11 / fast_pskip=1 / chroma_qp_offset=-3 / threads=9 / lookahead_threads=1 / sliced_threads=0 / nr=0 / decimate=1 / interlaced=0 / bluray_compat=0 / constrained_intra=0 / bframes=8 / b_pyramid=2 / b_adapt=2 / b_bias=0 / direct=3 / weightb=1 / open_gop=0 / weightp=2 / keyint=250 / keyint_min=23 / scenecut=40 / intra_refresh=0 / rc_lookahead=60 / rc=crf / mbtree=1 / crf=18.0 / qcomp=0.60 / qpmin=10 / qpmax=69 / qpstep=4 / vbv_maxrate=30000 / vbv_bufsize=30000 / crf_max=0.0 / nal_hrd=none / filler=0 / ip_ratio=1.40 / aq=1:1.00
Язык : English

Аудио #1
Идентификатор : 2
Формат : DTS
Формат/Информация : Digital Theater Systems
Идентификатор кодека : A_DTS
Продолжительность : 2 ч. 11 м.
Вид битрейта : Постоянный
Битрейт : 755 Кбит/сек
Каналы : 6 каналов
Расположение каналов : Front: L C R, Side: L R, LFE
Частота : 48,0 КГц
Битовая глубина : 24 бит
Метод сжатия : С потерями
Размер потока : 710 Мбайт (4%)
Язык : Russian

Аудио #2
Идентификатор : 3
Формат : AC-3
Формат/Информация : Audio Coding 3
Расширение режима : CM (complete main)
Идентификатор кодека : A_AC3
Продолжительность : 2 ч. 11 м.
Вид битрейта : Постоянный
Битрейт : 640 Кбит/сек
Каналы : 6 каналов
Расположение каналов : Front: L C R, Side: L R, LFE
Частота : 48,0 КГц
Битовая глубина : 16 бит
Метод сжатия : С потерями
Размер потока : 602 Мбайт (3%)
Язык : English
pb.wtf



Скачать Люди Икс: Дни минувшeго будущего в 3Д через торрент http://s017.radikal.ru/i402/1410/f4/c7a9d3ea87f6.png Скачать фильм Люди Икс: Дни минувшeго будущего в 3Д через торрент бесплантно в хорошем качестве Описание: На мутантов начинается охота с помощью самых современных технологий и применения роботов-убийц. Чтобы спасти своё будущее, ... 9.9 10 14
Info! Золотая раздача, скачанное не засчитывается.
Торрент: Зарегистрирован [2014-10-04 15:38] · скачан: 523 раз
Статус: √ проверено
Размер: 18.03 GB
Как cкачать? Как скачать Люди Икс: Дни минувшeго будущего в 3Д через торрент | UTorrent

28-11-2019 20:33  

Отключить всю рекламу на сайте

04-10-2014 18:03 Люди Икс: Дни минувшeго будущего в 3Д Скачать торрент  

Фильм в принципе понравился!Особенно момент запомнился с чуваком в наушниках который чрезмерно быстро передвигался!Момент просто бомба.Жаль только музыку там слабенькую бомбанули!Ожидал жесткого даб степа!pb.wtf



    Дорогой пользователь! Огромная просьба, поблагодарите релизера, оцените раздачу и оставьте свои комментарий, если Вы скачали Люди Икс: Дни минувшeго будущего в 3Д через торрент бесплатно! Внесите свою лепту в развитие PiratBit!
    Комментировать посты могут только пользователи прошедшие не сложную регистрацию
    Показать сообщения:    

    Люди Икс: Дни минувшeго будущего в 3Д через торрент
    Скачать бесплатно Люди Икс: Дни минувшeго будущего в 3Д
    Люди Икс: Дни минувшeго будущего в 3Д скачать торрент
    Люди Икс: Дни минувшeго будущего в 3Д смотреть онлайн
    Cкачать фильм Люди Икс: Дни минувшeго будущего в 3Д бесплатно
    Люди Икс: Дни минувшeго будущего в 3Д скачать торрент в хорошем качестве
    Люди Икс: Дни минувшeго будущего в 3Д смотреть онлайн бесплатно в хорошем качестве


    Вы не можете начинать темы
    Вы не можете отвечать на сообщения
    Вы не можете редактировать свои сообщения
    Вы не можете удалять свои сообщения
    Вы не можете голосовать в опросах
    Вы не можете прикреплять файлы к сообщениям
    Вы можете скачивать файлы