Всегда рабочее зеркало просто перед .vidak.icu напиши любое слово или цифру, Пример http://s3s.vidak.icu

>

7.4

iTunes

7.4

2 сезон

9.4

1 сезон

1

7.4

2 сезон

7.2

iTunes

6.0

MVO

13

6.1

iTunes

8.3

Пиратка

30

ULTIMATE

pack

9.9

Лицензия

ВАЖНО

ИГРА 18+

pack

7.3

RePack

MK11

7.7

RePack

jed

7.8

RePack

fifa19

8.5

RePack

RDR2

RePack

NEED FOR SPEED™ PAYBACK

1 сезон

9 сезон

Бесстыжие 9 сезон

Все сериалы

все сериалы на PB.wtf

RePack

FAR CRY 5

Anonymous, доброй ночи, мы катастрофически не успеваем собрать деньги на оплату серверов, помогите нам пожалуйста 5,10,15р., для нас важна любая помощь . В качестве благодарности мы отключим Вам всю рекламу на сайте (укажите свой ник в строку Ваше имя)!

×
  
Magnet ссылка

Сигнал / The Signal (Уильям Юбэнк) [2014, фантастика, триллер, HDRip, Авторский (одноголосый)[Ю.Немахов] pb.wtf

Сигнал через торрент pb.wtf

Размер: 1.36 GB | Добавлен: 7 лет 3 мес. назад | Торрент скачан:314 раз
Смотреть онлайн Сигнал | Скачать    Ребята, помогите собрать деньги на оплату серверов!!!

04-10-2014 18:23 Сигнал Скачать торрент  

Сигнал / The Signal
«R U Agitated?»

Год выпуска: 2014
Страна: США
Жанр:фантастика, триллер
Продолжительность:01:37:11
Перевод:Авторский (одноголосый)[Ю.Немахов]
Режиссер:Уильям Юбэнк

  • В ролях:

    Брентон Туэйтс (Nic), Лоренс Фишбёрн (Damon), Оливия Кук (Haley), Бо Напп (Jonah), Лин Шэй (Mirabelle), Роберт Лонгстрит (James), Патрик Дэвидсон (Boy Playing Claw Game), Джеффри Гроувер (Gas Station Clerk), Рой Кенни (Hazmat 1), Тимоти Холмс (Hazmat 2), Рикардо Кампос (Hazmat 3), Дрю Сайкес (Hazmat 4)

  • Описание:
    Трое студентов-хакеров неожиданно начинают получать таинственные сообщения от незнакомца под ником NOMAD (Кочевник). Но они даже не подозревают, что имеют дело не с человеком, а с сигналами внеземного разума.
    После серии необъяснимых происшествий друзья бегут из опасной ловушки, но тут же становятся объектами охоты «людей в чёрном», которые считают, что после контакта хакеры могут представлять угрозу для всего человечества.

  • Мировая премьера:20 января 2014

    Качество: HDRip
    Формат:AVI
    Видео кодек: XviD
    Аудио кодек:AC3
    Видео: XviD, 720x304 (2.35:1), 1551 kbps, 23,976 fps, 0,296 bpp
    Аудио: AC3 / 5.1 / 48 kHz / 448 kbps / 16 bit


    Код:

    General
    Complete name                            : D:\Торенты\Signal.2014.P1.HDRip.1400MB.avi
    Format                                   : AVI
    Format/Info                              : Audio Video Interleave
    File size                                : 1.36 GiB
    Duration                                 : 1h 37mn
    Overall bit rate                         : 2 009 Kbps
    Writing application                      : VirtualDubMod 1.5.10.2 (build 2540/release)
    Writing library                          : VirtualDubMod build 2540/release

    Video
    ID                                       : 0
    Format                                   : MPEG-4 Visual
    Format profile                           : Advanced Simple@L5
    Format settings, BVOP                    : 2
    Format settings, QPel                    : No
    Format settings, GMC                     : No warppoints
    Format settings, Matrix                  : Default (H.263)
    Codec ID                                 : XVID
    Codec ID/Hint                            : XviD
    Duration                                 : 1h 37mn
    Bit rate                                 : 1 552 Kbps
    Width                                    : 720 pixels
    Height                                   : 304 pixels
    Display aspect ratio                     : 2.35:1
    Frame rate                               : 23.976 fps
    Color space                              : YUV
    Chroma subsampling                       : 4:2:0
    Bit depth                                : 8 bits
    Scan type                                : Progressive
    Compression mode                         : Lossy
    Bits/(Pixel*Frame)                       : 0.296
    Stream size                              : 1.05 GiB (77%)
    Writing library                          : XviD 1.2.1 (UTC 2008-12-04)

    Audio
    ID                                       : 1
    Format                                   : AC-3
    Format/Info                              : Audio Coding 3
    Mode extension                           : CM (complete main)
    Codec ID                                 : 2000
    Duration                                 : 1h 37mn
    Bit rate mode                            : Constant
    Bit rate                                 : 448 Kbps
    Channel(s)                               : 6 channels
    Channel positions                        : Front: L C R, Side: L R, LFE
    Sampling rate                            : 48.0 KHz
    Bit depth                                : 16 bits
    Compression mode                         : Lossy
    Stream size                              : 311 MiB (22%)
    Alignment                                : Split accross interleaves
    Interleave, duration                     : 42 ms (1.00 video frame)
    Interleave, preload duration             : 500 ms

    Скриншоты:



    Каталог Новинок (Фильмы-трейлеры, Игры, Сериалы, Мультфильмы)


    © Оформление by Ravenpb.wtf



  • Скачать Сигнал через торрент https://pic1.kartinco.top/images/61/stazu.jpg Скачать, смотреть онлайн Сигнал бесплантно в хорошем качестве Описание:Трое студентов-хакеров неожиданно начинают получать таинственные сообщения от незнакомца под ником NOMAD (Кочевник). Но они даже ... 9 10 15
    Торрент: Зарегистрирован [2014-10-04 18:23] · скачан: 314 раз
    Статус: √ проверено
    Размер: 1.36 GB
    Как cкачать? Как скачать Сигнал через торрент | UTorrent

    % Раздел Тема Автор DL S | L
    Фильмы 2014 [DVDrip, WEB-DLRip, HDrip] [ 2.54 GB ] Сигнал / The Signal [2014 WEB-DLRip-AVC] [Open Matte] MVO+AVO bober100 Скачать
    1 | 0
    Фильмы (WEB-DL 720p, 1080p) [ 9.51 GB ] Сигнал / The Signal [2014 WEB-DL 1080p] [Open Matte] [MVO] + [AVO] killermax2013 Скачать
    1 | 0
    Фильмы (Blu-ray, BD-Remux, HDDVD) [ 24.44 GB ] Сигнал / The Signal [2014 BDRemux Авторский Ю.Немахов Ворон Скачать
    1 | 0
    Фильмы без перевода [ 1.04 GB ] Сигнал / The Signal [2014 HDRip] [ENG] killermax2013 Скачать
    1 | 0
    Фильмы без перевода [ 848 MB ] Сигнал / The Signal [2014 HDRip-AVC] [Rus SUB] + [Orig] Eng killermax2013 Скачать
    1 | 0
    Фильмы 2006-2008 [ 744 MB ] Сигнал / The Signal [2007 HDRip] DVO -=Cherry=- Скачать
    1 | 0

    28-11-2019 20:33  

    Отключить всю рекламу на сайте

    04-10-2014 21:03 Сигнал Скачать торрент  

    Когда уже дубляж будет в хорошем качестве?pb.wtf



      Дорогой пользователь! Огромная просьба, поблагодарите релизера, оцените раздачу и оставьте свои комментарий, если Вы скачали Сигнал через торрент бесплатно!
      Комментировать посты могут только пользователи прошедшие не сложную регистрацию
      Показать сообщения:    

      Сигнал через торрент
      Скачать бесплатно Сигнал
      Сигнал скачать торрент
      Сигнал смотреть онлайн
      Cкачать фильм Сигнал бесплатно
      Сигнал скачать торрент в хорошем качестве
      Сигнал смотреть онлайн бесплатно в хорошем качестве


      Вы не можете начинать темы
      Вы не можете отвечать на сообщения
      Вы не можете редактировать свои сообщения
      Вы не можете удалять свои сообщения
      Вы не можете голосовать в опросах
      Вы не можете прикреплять файлы к сообщениям
      Вы можете скачивать файлы