2 сезон

iTunes

MVO

1

2 сезон

iTunes

iTunes

1 сезон

RePack

30

Новинка

ВАЖНО

ИГРА 18+

pack

RePack

MK11
pack

Легкие деньги

RePack

jed

RePack

fifa19

RePack

RDR2

RePack

NEED FOR SPEED™ PAYBACK

4 сезон

9 сезон

Бесстыжие 9 сезон

Все сериалы

все сериалы на PB.wtf

RePack

FAR CRY 5

Anonymous, доброе утро, мы не успеваем собрать деньги на оплату серверов за декабрь и январь, помогите нам пожалуйста в это трудное время. В качестве благодарности мы отключим Вам всю рекламу на сайте (укажите свой ник в строку Ваше имя)!

×
  
Magnet ссылка

Убийство у моря / Tyskungen (Пер Ханефьорд) [2013 г., криминал, HDRip, Профессиональный многоголосый] pb.wtf

Убийство у моря через торрент pb.wtf

Размер: 2.05 GB | Добавлен: 6 лет 3 мес. назад | Торрент скачан:404 раза
Скачать  

05-10-2014 05:45 Убийство у моря Скачать торрент  

Убийство у моря / Tyskungen

Год выпуска: 2013
Страна: Швеция, Германия
Жанр: криминал
Продолжительность: 01:45:03
Перевод: Профессиональный многоголосый

Режиссер: Пер Ханефьорд
Продюссер: Хелена Даниэльссон, Понтус Сьёман, Хелен Ахлссон
Сценарий: Мария Карлссон, Камилла Лекберг
Премьера в мире: 24 июня 2013

IMDB 5.80 (801)


В ролях: Клаудия Галли, Ричард Ульфзэтер, Эва Фритйофсон, Памела Кортес Бруна, Леннарт Якель, Amalia Holm Bjelke, Fanny Klefelt, Эдвин Эндре, Аксель Мирберг, Kim Solfeldt

Описание: Живописный рыбацкий городок Фьелльбакка на побережье Атлантики выглядит как ожившая туристическая открытка. Именно сюда возвращается автор детективов Эрика, мечтая предаться счастливой семейной жизни и творчеству. Но тихая провинциальная жизнь таит немало секретов. И однажды вековой покой Фьелльбакки взрывается новостью о жестоком убийстве...

Качество: HDRip
Формат: AVI
Видео кодек: XviD
Аудио кодек: AC3
Видео: XviD, ~1 884 Kbps, 720x304, 23.976 fps
Аудио#1: русский, AC3, 448 kb/s (2 ch), 48 kHz
Аудио#2: шведский, AC3, 448 kb/s (6 ch), 48 kHz
General
Complete name : /home/sb753/files/Ybiistvo.y.morya.2013.P.HDRip2100.avi
Format : AVI
Format/Info : Audio Video Interleave
Format profile : OpenDML
File size : 2.05 GiB
Duration : 1h 45mn
Overall bit rate : 2 798 Kbps
Writing application : VirtualDubMod 1.5.10.2 (build 2540/release)
Writing library : VirtualDubMod build 2540/release

Video
ID : 0
Format : MPEG-4 Visual
Format profile : Advanced Simple@L5
Format settings, BVOP : 1
Format settings, QPel : No
Format settings, GMC : No warppoints
Format settings, Matrix : Custom
Codec ID : XVID
Codec ID/Hint : XviD
Duration : 1h 45mn
Bit rate : 1 884 Kbps
Width : 720 pixels
Height : 304 pixels
Display aspect ratio : 2.35:1
Frame rate : 24.000 fps
Color space : YUV
Chroma subsampling : 4:2:0
Bit depth : 8 bits
Scan type : Progressive
Compression mode : Lossy
Bits/(Pixel*Frame) : 0.359
Stream size : 1.38 GiB (67%)
Writing library : XviD 1.2.1 (UTC 2008-12-04)

Audio #1
ID : 1
Format : AC-3
Format/Info : Audio Coding 3
Mode extension : CM (complete main)
Format settings, Endianness : Big
Codec ID : 2000
Duration : 1h 45mn
Bit rate mode : Constant
Bit rate : 448 Kbps
Channel(s) : 2 channels
Channel positions : Front: L R
Sampling rate : 48.0 KHz
Bit depth : 16 bits
Compression mode : Lossy
Stream size : 337 MiB (16%)
Alignment : Split accross interleaves
Interleave, duration : 42 ms (1.00 video frame)
Interleave, preload duration : 500 ms

Audio #2
ID : 2
Format : AC-3
Format/Info : Audio Coding 3
Mode extension : CM (complete main)
Format settings, Endianness : Big
Codec ID : 2000
Duration : 1h 45mn
Bit rate mode : Constant
Bit rate : 448 Kbps
Channel(s) : 6 channels
Channel positions : Front: L C R, Side: L R, LFE
Sampling rate : 48.0 KHz
Bit depth : 16 bits
Compression mode : Lossy
Stream size : 337 MiB (16%)
Alignment : Split accross interleaves
Interleave, duration : 42 ms (1.00 video frame)
Interleave, preload duration : 500 ms
pb.wtf



Скачать Убийство у моря через торрент http://i64.fastpic.ru/big/2014/1005/2c/2d975642f5a366ce07c82fb9f0b63d2c.png Скачать фильм Убийство у моря через торрент бесплантно в хорошем качестве Описание: Живописный рыбацкий городок Фьелльбакка на побережье Атлантики выглядит как ожившая туристическая открытка. Именно сюда ... 9.8 10 15
Торрент: Зарегистрирован [2014-10-05 05:45] · скачан: 404 раз
Статус: √ проверено
Размер: 2.05 GB
Как cкачать? Как скачать Убийство у моря через торрент | UTorrent

% Раздел Тема Автор DL S | L
Фильмы [HD 720p, 1080p] (Хороший звук DUB, MVO) [ 3.72 GB ] Тайное дитя / Убийство у моря / Tyskungen [2013 детекив BDRip 720p многоголосый] Ворон Скачать
1 | 0

28-11-2019 20:33  

Отключить всю рекламу на сайте

    Дорогой пользователь! Огромная просьба, поблагодарите релизера, оцените раздачу и оставьте свои комментарий, если Вы скачали Убийство у моря через торрент бесплатно! Внесите свою лепту в развитие PiratBit!
    Комментировать посты могут только пользователи прошедшие не сложную регистрацию
    Показать сообщения:    

    Убийство у моря через торрент
    Скачать бесплатно Убийство у моря
    Убийство у моря скачать торрент
    Убийство у моря смотреть онлайн
    Cкачать фильм Убийство у моря бесплатно
    Убийство у моря скачать торрент в хорошем качестве
    Убийство у моря смотреть онлайн бесплатно в хорошем качестве


    Вы не можете начинать темы
    Вы не можете отвечать на сообщения
    Вы не можете редактировать свои сообщения
    Вы не можете удалять свои сообщения
    Вы не можете голосовать в опросах
    Вы не можете прикреплять файлы к сообщениям
    Вы можете скачивать файлы