Ссылка на приватное зеркало нашего сайта всего за 1$. Внимание количество ограничено!!!

2 сезон

iTunes

1 сезон

1

iTunes

iTunes

iTunes

1 сезон

RePack

30

ИГРА 18+

pack

ВАЖНО

!!Акция!!

Alien_RageХит недели

RePack

MK11
pack

Забери бонус

RePack

jed

!!Акция!!

Alien_Rage

RePack

fifa19

RePack

Assassins Creed: Odyssey

RePack

NEED FOR SPEED™ PAYBACK

4 сезон

9 сезон

Бесстыжие 9 сезон

Все сериалы

все сериалы на PB.wtf

RePack

FAR CRY 5
  

Псы-воины / Dog Soldiers (Нил Маршалл) [2002, Ужасы, фэнтези, боевик, триллер, приключения, BDRip 1080p] MVO, DVO, AVO pb.wtf

Псы-воины через торрент pb.wtf

Размер: 15.88 GB | Добавлен: 6 лет назад | Торрент скачан:48 раз
Скачать  

05-10-2014 09:28 Псы-воины Скачать торрент  

Псы-воины / Dog Soldiers
Год выпуска: 2002
Страна: США, Великобритания, Люксембург
Жанр: Ужасы, фэнтези, боевик, триллер, приключения
Продолжительность: 01:44:52
Перевод: Профессиональный многоголосый, профессиональный двухголосый, авторский
Субтитры: русские, английские (для слабослышащих) (все отдельно)

Режиссёр: Нил Маршалл

В ролях: Шон Пертуи, Кевин МакКидд, Эмма Клисби, Лиам Каннингэм, Томас Локйер, Даррен Морфитт, Крис Робсон, Лесли Симпсон, Тина Ландини, Крэйг Конуэй

Описание: Отряд британских солдат под командованием сержанта Уэллса отправился на боевое задание в дикие леса горной Шотландии. Но то что началось, как обычные армейские учения, превратилось в настоящий кошмар. Прибыв на секретную военную базу, солдаты обнаружили истекающего кровью капитана Райана и растерзанные останки его подчинённых…



Качество: BDRip 1080p Сравнение с исходником
Формат: MKV
Видео кодек: H.264
Аудио кодек: AC3, DTS
Видео: 1920x1046, 14.1 Mбит/с, 23,976 кадра/с, 0.293 bpp
Аудио 1: русский, DTS, 768 kbps, 6 ch, 48 kHz [профессиональный многоголосый, DVD Magic, R5]
Аудио 2: русский, DTS, 1509 kbps, 6 ch, 48 kHz [авторский, Андрей Гаврилов]
Аудио 3: русский, DTS, 1509 kbps, 6 ch, 48 kHz [авторский, Дмитрий Пучков - Гоблин, с ненормативной лексикой]

Отдельные файлы
Аудио: русский, AC3, 448 kbps, 6 ch, 48 kHz [профессиональный многоголосый, DVD Magic, R5]
Аудио: русский, AC3, 384 kbps, 6 ch, 48 kHz [профессиональный многоголосый]
Аудио: русский, AC3, 192 kbps, 2 ch, 48 kHz [профессиональный двухголосый, Швецов с дамой, с ненормативной лексикой]
Аудио: русский, AC3, 448 kbps, 6 ch, 48 kHz [авторский, Андрей Гаврилов]
Аудио: русский, AC3, 448 kbps, 6 ch, 48 kHz [авторский, Дмитрий Пучков - Гоблин, с ненормативной лексикой]
Аудио: английский, DTS, 1509 kbps, 6 ch, 48 kHz [оригинал]

Имеются неименованные главы/чаптеры.

Автор рипа msltel
frame I:950 Avg QP:16.57 size:140635
frame P:32295 Avg QP:17.42 size:109714
frame B:117619 Avg QP:19.63 size: 65458

Общее
Полное имя : D:\Video\Psy-voiny.2002.BDRip.1080p\Psy-voiny.2002.AVO.rus.А.Гаврилов.ac3
Формат : AC-3
Формат/Информация : Audio Coding 3
Размер файла : 336 Мбайт
Продолжительность : 1 ч. 44 м.
Режим общего битрейта : Постоянный
Общий поток : 448 Кбит/сек

Аудио
Формат : AC-3
Формат/Информация : Audio Coding 3
Расширение режима : CM (complete main)
Параметр Endianness формата : Big
Продолжительность : 1 ч. 44 м.
Вид битрейта : Постоянный
Битрейт : 448 Кбит/сек
Каналы : 6 каналов
Расположение каналов : Front: L C R, Side: L R, LFE
Частота : 48,0 КГц
Битовая глубина : 16 бит
Метод сжатия : С потерями
Размер потока : 336 Мбайт (100%)

Общее
Полное имя : D:\Video\Psy-voiny.2002.BDRip.1080p\Psy-voiny.2002.AVO.rus.Гоблин, ненорматив.ac3
Формат : AC-3
Формат/Информация : Audio Coding 3
Размер файла : 336 Мбайт
Продолжительность : 1 ч. 44 м.
Режим общего битрейта : Постоянный
Общий поток : 448 Кбит/сек

Аудио
Формат : AC-3
Формат/Информация : Audio Coding 3
Расширение режима : CM (complete main)
Параметр Endianness формата : Big
Продолжительность : 1 ч. 44 м.
Вид битрейта : Постоянный
Битрейт : 448 Кбит/сек
Каналы : 6 каналов
Расположение каналов : Front: L C R, Side: L R, LFE
Частота : 48,0 КГц
Битовая глубина : 16 бит
Метод сжатия : С потерями
Размер потока : 336 Мбайт (100%)

Общее
Уникальный идентификатор : 209609229988947894898431971880731876098 (0x9DB144EE969260C69C8AA6D2DA831B02)
Полное имя : D:\Video\Psy-voiny.2002.BDRip.1080p\Psy-voiny.2002.BDRip.1080p.mkv
Формат : Matroska
Версия формата : Version 4 / Version 2
Размер файла : 13,4 Гбайт
Продолжительность : 1 ч. 44 м.
Общий поток : 18,3 Мбит/сек
Дата кодирования : UTC 2014-10-05 07:38:18
Программа кодирования : mkvmerge v6.9.1 ('Blue Panther') 64bit built on Apr 18 2014 18:23:38
Библиотека кодирования : libebml v1.3.0 + libmatroska v1.4.1

Видео
Идентификатор : 1
Формат : AVC
Формат/Информация : Advanced Video Codec
Профиль формата : High@L4.1
Параметр CABAC формата : Да
Параметр ReFrames формата : 4 кадра
Идентификатор кодека : V_MPEG4/ISO/AVC
Продолжительность : 1 ч. 44 м.
Битрейт : 14,1 Мбит/сек
Ширина : 1920 пикселей
Высота : 1046 пикселей
Соотношение сторон : 1,85:1
Режим частоты кадров : Постоянный
Частота кадров : 23,976 кадра/сек
Цветовое пространство : YUV
Субдискретизация насыщенности : 4:2:0
Битовая глубина : 8 бит
Тип развёртки : Прогрессивная
Бит/(Пиксели*Кадры) : 0.293
Размер потока : 10,3 Гбайт (77%)
Заголовок : BDRip -- STarankov
Библиотека кодирования : x264 core 142 r2431 ac76440
Настройки программы : cabac=1 / ref=4 / deblock=1:-1:-1 / analyse=0x3:0x113 / me=umh / subme=10 / psy=1 / psy_rd=1.00:0.15 / mixed_ref=1 / me_range=32 / chroma_me=1 / trellis=2 / 8x8dct=1 / cqm=0 / deadzone=21,11 / fast_pskip=0 / chroma_qp_offset=-3 / threads=6 / lookahead_threads=1 / sliced_threads=0 / nr=0 / decimate=1 / interlaced=0 / bluray_compat=0 / constrained_intra=0 / bframes=8 / b_pyramid=2 / b_adapt=2 / b_bias=0 / direct=1 / weightb=1 / open_gop=0 / weightp=2 / keyint=230 / keyint_min=23 / scenecut=40 / intra_refresh=0 / rc_lookahead=40 / rc=crf / mbtree=0 / crf=19.0 / qcomp=0.60 / qpmin=0 / qpmax=69 / qpstep=4 / vbv_maxrate=40000 / vbv_bufsize=50000 / crf_max=0.0 / nal_hrd=none / filler=0 / ip_ratio=1.40 / pb_ratio=1.30 / aq=1:1.00
Язык : English
Default : Да
Forced : Нет

Аудио #1
Идентификатор : 2
Формат : DTS
Формат/Информация : Digital Theater Systems
Режим : 16
Параметр Endianness формата : Big
Идентификатор кодека : A_DTS
Продолжительность : 1 ч. 44 м.
Вид битрейта : Постоянный
Битрейт : 768 Кбит/сек
Каналы : 6 каналов
Расположение каналов : Front: L C R, Side: L R, LFE
Частота : 48,0 КГц
Битовая глубина : 24 бит
Метод сжатия : С потерями
Размер потока : 576 Мбайт (4%)
Заголовок : MVO (DVD Magic, R5)
Язык : Russian
Default : Да
Forced : Нет

Аудио #2
Идентификатор : 3
Формат : DTS
Формат/Информация : Digital Theater Systems
Режим : 16
Параметр Endianness формата : Big
Идентификатор кодека : A_DTS
Продолжительность : 1 ч. 44 м.
Вид битрейта : Постоянный
Битрейт : 1509 Кбит/сек
Каналы : 6 каналов
Расположение каналов : Front: L C R, Side: L R, LFE
Частота : 48,0 КГц
Битовая глубина : 24 бит
Метод сжатия : С потерями
Размер потока : 1,11 Гбайт (8%)
Заголовок : AVO (Андрей Гаврилов)
Язык : Russian
Default : Нет
Forced : Нет

Аудио #3
Идентификатор : 4
Формат : DTS
Формат/Информация : Digital Theater Systems
Режим : 16
Параметр Endianness формата : Big
Идентификатор кодека : A_DTS
Продолжительность : 1 ч. 44 м.
Вид битрейта : Постоянный
Битрейт : 1509 Кбит/сек
Каналы : 6 каналов
Расположение каналов : Front: L C R, Side: L R, LFE
Частота : 48,0 КГц
Битовая глубина : 24 бит
Метод сжатия : С потерями
Размер потока : 1,11 Гбайт (8%)
Заголовок : AVO (Дмитрий Пучков - Гоблин, с ненормативной лексикой)
Язык : Russian
Default : Нет
Forced : Нет

Меню
00:00:00.000 : :Chapter 01
00:08:00.939 : :Chapter 02
00:12:33.586 : :Chapter 03
00:21:09.602 : :Chapter 04
00:24:01.772 : :Chapter 05
00:32:53.680 : :Chapter 06
00:40:17.373 : :Chapter 07
00:46:17.608 : :Chapter 08
00:52:48.873 : :Chapter 09
01:01:45.911 : :Chapter 10
01:13:26.360 : :Chapter 11
01:19:11.162 : :Chapter 12
01:27:13.979 : :Chapter 13
01:31:47.794 : :Chapter 14
01:35:47.158 : :Chapter 15
01:37:34.474 : :Chapter 16

Общее
Полное имя : D:\Video\Psy-voiny.2002.BDRip.1080p\Psy-voiny.2002.DVO.rus.Швецов с дамой ненорматив.ac3
Формат : AC-3
Формат/Информация : Audio Coding 3
Размер файла : 144 Мбайт
Продолжительность : 1 ч. 44 м.
Режим общего битрейта : Постоянный
Общий поток : 192 Кбит/сек

Аудио
Формат : AC-3
Формат/Информация : Audio Coding 3
Расширение режима : CM (complete main)
Параметр Endianness формата : Big
Продолжительность : 1 ч. 44 м.
Вид битрейта : Постоянный
Битрейт : 192 Кбит/сек
Каналы : 2 канала
Расположение каналов : Front: L R
Частота : 48,0 КГц
Битовая глубина : 16 бит
Метод сжатия : С потерями
Размер потока : 144 Мбайт (100%)

Общее
Полное имя : D:\Video\Psy-voiny.2002.BDRip.1080p\Psy-voiny.2002.eng.SDH.srt
Формат : SubRip
Размер файла : 89,4 Кбайт

Текст
Формат : SubRip
Метод сжатия : Без потерь

Общее
Полное имя : D:\Video\Psy-voiny.2002.BDRip.1080p\Psy-voiny.2002.MVO.rus.ac3
Формат : AC-3
Формат/Информация : Audio Coding 3
Размер файла : 288 Мбайт
Продолжительность : 1 ч. 44 м.
Режим общего битрейта : Постоянный
Общий поток : 384 Кбит/сек

Аудио
Формат : AC-3
Формат/Информация : Audio Coding 3
Расширение режима : CM (complete main)
Параметр Endianness формата : Big
Продолжительность : 1 ч. 44 м.
Вид битрейта : Постоянный
Битрейт : 384 Кбит/сек
Каналы : 6 каналов
Расположение каналов : Front: L C R, Side: L R, LFE
Частота : 48,0 КГц
Битовая глубина : 16 бит
Метод сжатия : С потерями
Размер потока : 288 Мбайт (100%)

Общее
Полное имя : D:\Video\Psy-voiny.2002.BDRip.1080p\Psy-voiny.2002.MVO.rus.DVD Magic, R5.ac3
Формат : AC-3
Формат/Информация : Audio Coding 3
Размер файла : 336 Мбайт
Продолжительность : 1 ч. 44 м.
Режим общего битрейта : Постоянный
Общий поток : 448 Кбит/сек

Аудио
Формат : AC-3
Формат/Информация : Audio Coding 3
Расширение режима : CM (complete main)
Параметр Endianness формата : Big
Продолжительность : 1 ч. 44 м.
Вид битрейта : Постоянный
Битрейт : 448 Кбит/сек
Каналы : 6 каналов
Расположение каналов : Front: L C R, Side: L R, LFE
Частота : 48,0 КГц
Битовая глубина : 16 бит
Метод сжатия : С потерями
Размер потока : 336 Мбайт (100%)

Общее
Полное имя : D:\Video\Psy-voiny.2002.BDRip.1080p\Psy-voiny.2002.Original.eng.dts
Формат : DTS
Формат/Информация : Digital Theater Systems
Размер файла : 1,11 Гбайт
Продолжительность : 1 ч. 44 м.
Режим общего битрейта : Постоянный
Общий поток : 1509 Кбит/сек

Аудио
Формат : DTS
Формат/Информация : Digital Theater Systems
Режим : 16
Параметр Endianness формата : Big
Продолжительность : 1 ч. 44 м.
Вид битрейта : Постоянный
Битрейт : 1509 Кбит/сек
Каналы : 6 каналов
Расположение каналов : Front: L C R, Side: L R, LFE
Частота : 48,0 КГц
Битовая глубина : 24 бит
Метод сжатия : С потерями
Размер потока : 1,11 Гбайт (100%)

Общее
Полное имя : D:\Video\Psy-voiny.2002.BDRip.1080p\Psy-voiny.2002.rus.srt
Формат : SubRip
Размер файла : 76,5 Кбайт

Текст
Формат : SubRip
Метод сжатия : Без потерь
pb.wtf



Скачать Псы-воины через торрент http://i65.fastpic.ru/big/2014/1004/ff/c1c08a78275199c0ade8e2ea0ac060ff.jpg Скачать фильм Псы-воины через торрент бесплантно в хорошем качестве Описание: Отряд британских солдат под командованием сержанта Уэллса отправился на боевое задание в дикие леса горной Шотландии. Но то что ... 9.1 10 9
Торрент: Зарегистрирован [2014-10-05 09:28] · скачан: 48 раз
Статус: √ проверено
Размер: 15.88 GB
Как cкачать? Как скачать Псы-воины через торрент | qTorrent

% Раздел Тема Автор DL S | L
Ultra HD (UHD: 2K, 4K, 8K) — видео сверхвысокой чёткости [ 41.48 GB ] Псы-воины / Dog Soldiers [2001 UHD BDRemux 2160p] [SDR] 2xMVO + 2xDVO + 2xAVO sheker187 Скачать
1 | 0
Фильмы [HD 720p, 1080p] (Хороший звук DUB, MVO) [ 9.3 GB ] Псы-воины / Dog Soldiers [2002 BDRip 720p] MVO DVO AVO msltel Скачать
1 | 0

28-11-2019 20:33  

Отключить всю рекламу на сайте

05-10-2014 11:22 Псы-воины Скачать торрент  

Круть! pb.wtf



05-10-2014 12:53 Псы-воины Скачать торрент  

первый ужастик , который зацепил worrypb.wtf



30-05-2015 15:01 Псы-воины Скачать торрент  

Отличный фильм!!!pb.wtf



    Дорогой пользователь! Огромная просьба, поблагодарите релизера, оцените раздачу и оставьте свои комментарий, если Вы скачали Псы-воины через торрент бесплатно! Внесите свою лепту в развитие PiratBit!
    Комментировать посты могут только пользователи прошедшие не сложную регистрацию
    Показать сообщения:    

    Псы-воины через торрент
    Скачать бесплатно Псы-воины
    Псы-воины скачать торрент
    Псы-воины смотреть онлайн
    Cкачать фильм Псы-воины бесплатно
    Псы-воины скачать торрент в хорошем качестве
    Псы-воины смотреть онлайн бесплатно в хорошем качестве


    Вы не можете начинать темы
    Вы не можете отвечать на сообщения
    Вы не можете редактировать свои сообщения
    Вы не можете удалять свои сообщения
    Вы не можете голосовать в опросах
    Вы не можете прикреплять файлы к сообщениям
    Вы можете скачивать файлы