1 сезон

1 сезон

iTunes

1

КиноПоиск HD

Кинопоиск HD

iTunes

13

1 сезон

RePack

30

Новинка

ВАЖНО

ИГРА 18+

pack

RePack

MK11
pack

Легкие деньги

RePack

jed

RePack

fifa19

RePack

RDR2

RePack

NEED FOR SPEED™ PAYBACK

4 сезон

9 сезон

Бесстыжие 9 сезон

Все сериалы

все сериалы на PB.wtf

RePack

FAR CRY 5
  
Magnet ссылка

Охотник / The Tracker (Джефф Шечтер) [2001 г., боевик, DVDRip-AVC, Профессиональный многоголосый] pb.wtf

Охотник через торрент pb.wtf

Размер: 1.3 GB | Добавлен: 6 лет 6 мес. назад | Торрент скачан:54 раза
Скачать  

05-10-2014 14:45 Охотник Скачать торрент  

Охотник / The Tracker
Год выпуска: 2001
Страна: США, Канада
Жанр: боевик
Продолжительность: 01:29:17
Перевод: Профессиональный многоголосый
Субтитры: Отсутствуют

Режиссер: Джефф Шечтер
Продюссер: Пьер Ле, Дон Кармоди, Майкл Прупас
Сценарий: Роберт Джефрион

Премьера в мире: 21 ноября 2001

MPAA: R лицам до 17 лет обязательно присутствие взрослого
IMDb: 4.80 (197)
Кинопоиск: 4.963 59

В ролях: Каспер Ван Дин, Франсуаза Робертсон, Расселл Вонг, Джейсон Бликер, Лекса Дойг, Бретт Уотсон, Джордж Чианг, Алан Фоусет, Зенху Хань, Григорий Гладий, Расселл Юэнь, Сесиль Кристобал, Шон Хейс, Сара Брадин, Суини МакАртур, Мэри Мортер, Терри Симпсон, Джейсон Кавалье, Бэрри Блейк, Сара Шечтер, Рэйчел Шечтер

Описание: Охотник за преступниками, бывший полицейский Коннор Спирс, оказывается втянутым в кровавую войну двух мафиозных семейств.. .. Все началось с того, что к Спирсу обратился за помощью его старый друг Рик, у которого бандиты похитили родную сестру.

Дело в том, что сестра Рика была замужем за сыном главаря китайского клана Чанг. После того, как русские гангстеры объявили китайцам войну, они безжалостно расправились с младшим Чангом и похитили его жену.

Теперь Коннор и Рик отправляются в Нью-Йорк, чтобы, продемонстрировав мастер-класс восточных единоборств, отбить у бандитов несчастную девушку!

Качество: DVDRip-AVC
Формат: MKV
Видео кодек: AVC
Аудио кодек: AC3
Видео: 1887 Кбит/сек , 712*568 (16:9) , в 25,000 кадров/сек, AVC ( High@L3,0) (CABAC /5 Ref Frames)
Аудио#1: Russian,192 Кбит/сек, 48,0 КГц, 16 бит, 2 канала , AC-3






Общее
Уникальный идентификатор : 176592766825197590586287758037314548924 (0x84DA879E4A94ED5F813FC3DD580DB4BC)
Полное имя : D:\torrent\Охотник. 2001 DVDRip-AVC.mkv
Формат : Matroska
Версия формата : Version 2
Размер файла : 1,30 Гбайт
Продолжительность : 1 ч. 29 м.
Общий поток : 2080 Кбит/сек
Дата кодирования : UTC 2011-10-11 00:42:47
Программа кодирования : mkvmerge v4.6.0 ('Still Crazy After All These Years') built on Mar 10 2011 02:50:32
Библиотека кодирования : libebml v1.2.0 + libmatroska v1.1.0

Видео
Идентификатор : 1
Формат : AVC
Формат/Информация : Advanced Video Codec
Профиль формата : High@L3.0
Параметр CABAC формата : Да
Параметр ReFrames формата : 5 кадров
Идентификатор кодека : V_MPEG4/ISO/AVC
Продолжительность : 1 ч. 29 м.
Битрейт : 1887 Кбит/сек
Ширина : 712 пикселей
Высота : 568 пикселей
Соотношение сторон : 16:9
Соотношение сторон в оригинале : 16:9
Режим частоты кадров : Постоянный
Частота кадров : 25,000 кадров/сек
Цветовое пространство : YUV
Субдискретизация насыщенности : 4:2:0
Битовая глубина : 8 бит
Тип развёртки : Прогрессивная
Бит/(Пиксели*Кадры) : 0.187
Размер потока : 1,15 Гбайт (89%)
Библиотека кодирования : x264 core 115 r1995 c1e60b9
Настройки программы : cabac=1 / ref=5 / deblock=1:-1:-1 / analyse=0x3:0x113 / me=umh / subme=8 / psy=1 / psy_rd=1.00:0.15 / mixed_ref=1 / me_range=16 / chroma_me=1 / trellis=1 / 8x8dct=1 / cqm=0 / deadzone=21,11 / fast_pskip=1 / chroma_qp_offset=-3 / threads=3 / sliced_threads=0 / nr=0 / decimate=1 / interlaced=0 / bluray_compat=0 / constrained_intra=0 / bframes=3 / b_pyramid=2 / b_adapt=2 / b_bias=0 / direct=3 / weightb=1 / open_gop=0 / weightp=2 / keyint=250 / keyint_min=25 / scenecut=40 / intra_refresh=0 / rc_lookahead=50 / rc=2pass / mbtree=1 / bitrate=1887 / ratetol=1.0 / qcomp=0.60 / qpmin=0 / qpmax=69 / qpstep=4 / cplxblur=20.0 / qblur=0.5 / ip_ratio=1.40 / aq=1:1.00
Default : Да
Forced : Нет
Коэффициенты матрицы : BT.601

Аудио
Идентификатор : 2
Формат : AC-3
Формат/Информация : Audio Coding 3
Расширение режима : CM (complete main)
Параметр Endianness формата : Big
Идентификатор кодека : A_AC3
Продолжительность : 1 ч. 29 м.
Вид битрейта : Постоянный
Битрейт : 192 Кбит/сек
Каналы : 2 канала
Расположение каналов : Front: L R
Частота : 48,0 КГц
Битовая глубина : 16 бит
Метод сжатия : С потерями
Размер потока : 123 Мбайт (9%)
Язык : Russian
Default : Да
Forced : Нет

pb.wtf



Скачать Охотник через торрент https://pic.kartinco.top/images/7/14dn4.jpg Скачать фильм Охотник через торрент бесплантно в хорошем качестве Описание: Охотник за преступниками, бывший полицейский Коннор Спирс, оказывается втянутым в кровавую войну двух мафиозных семейств.. .. Все ... 10 10 3
Торрент: Зарегистрирован [2014-10-05 14:45] · скачан: 54 раз
Статус: √ проверено
Размер: 1.3 GB
Как cкачать? Как скачать Охотник через торрент | UTorrent

28-11-2019 20:33  

Отключить всю рекламу на сайте

    Дорогой пользователь! Огромная просьба, поблагодарите релизера, оцените раздачу и оставьте свои комментарий, если Вы скачали Охотник через торрент бесплатно! Внесите свою лепту в развитие PiratBit!
    Комментировать посты могут только пользователи прошедшие не сложную регистрацию
    Показать сообщения:    

    Охотник через торрент
    Скачать бесплатно Охотник
    Охотник скачать торрент
    Охотник смотреть онлайн
    Cкачать фильм Охотник бесплатно
    Охотник скачать торрент в хорошем качестве
    Охотник смотреть онлайн бесплатно в хорошем качестве


    Вы не можете начинать темы
    Вы не можете отвечать на сообщения
    Вы не можете редактировать свои сообщения
    Вы не можете удалять свои сообщения
    Вы не можете голосовать в опросах
    Вы не можете прикреплять файлы к сообщениям
    Вы можете скачивать файлы