Ссылка на приватное зеркало нашего сайта всего за 1$. Внимание количество ограничено!!!

2 сезон

iTunes

1 сезон

1

iTunes

iTunes

iTunes

1 сезон

RePack

30

ИГРА 18+

pack

ВАЖНО

!!Акция!!

Alien_RageХит недели

RePack

MK11
pack

Забери бонус

RePack

jed

!!Акция!!

Alien_Rage

RePack

fifa19

RePack

Assassins Creed: Odyssey

RePack

NEED FOR SPEED™ PAYBACK

4 сезон

9 сезон

Бесстыжие 9 сезон

Все сериалы

все сериалы на PB.wtf

RePack

FAR CRY 5
  

Ронин / Ronin (Джон Франкенхаймер) [1998 г., боевик, триллер, криминал, приключения, BDRip 1080p,MVO, DVO, AVO] pb.wtf

Ронин через торрент pb.wtf

Размер: 15.23 GB | Добавлен: 6 лет назад | Торрент скачан:49 раз
Скачать  

05-10-2014 19:53 Ронин Скачать торрент  

Ронин / Ronin

Год выпуска: 1998
Страна: Великобритания, США
Жанр: боевик, триллер, криминал, приключения
Продолжительность: 02:01:34
Перевод: Профессиональный многоголосый, Двухголосый закадровый, Авторский Одноголосый закадровый
Субтитры: Russian, English

Режиссер: Джон Франкенхаймер
Продюссер: Фрэнк Манкузо мл., Пол Келменсон, Этель Уинант
Сценарий: Дж. Д. Зайк, Дэвид Мэмет
Бюджет: $55 000 000
Премьера в мире: 12 сентября 1998

IMDB 7.30 (129 907)


В ролях: Роберт Де Ниро, Жан Рено, Наташа МакЭлхоун, Стеллан Скарсгард, Шон Бин, Скипп Саддат, Микаэль Лонсдаль, Ян Триска, Джонатан Прайс, Рон Перкинс, Виктор Костецкий, Андрей Толубеев, Алексей Гурьев

Описание: Хотя холодная война давно закончена, тайные наемники, чьи навыки в слежке, шпионаже и силовых схватках буквально легендарны, остаются востребованными при новом мировом порядке и всегда находят высокооплачиваемую работу. Некий таинственный клиент собирает в Париже команду таких «платных оперативников», известных как «Ронины», для похищения сверхсекретного портфеля.Вскоре выясняется, что это, на первый взгляд простое, задание почти невыполнимо: та же цена обещана за тот же портфель еще нескольким нелегальным группам.Чтобы справиться с работой, бывший агент ЦРУ по кличке «Сэм» и его наспех сколоченный отряд должны делать то, чего им не приходилось делать никогда раньше: довериться друг другу...

Качество: BDRip 1080p
Формат: MKV
Видео кодек: x264
Аудио кодек: AC3 / DTS
Видео: 1920x812 at 23.976 fps, x264@L4.1, 2pass, ~12000 kbps avg
Аудио#1: Russian: 48 kHz, AC3, 2/0 (L,R) ch, ~192 kbps avg |Многоголосый закадровый, Варус видео|
Аудио#2: Russian: 48 kHz, DTS, 3/2 (L,C,R,l,r) + LFE ch, ~755 kbps avg |Многоголосый закадровый, С.Р.И.|
Аудио#3: Russian: 48 kHz, DTS, 3/2 (L,C,R,l,r) + LFE ch, ~755 kbps avg |Многоголосый закадровый, Домашнее видео|
Аудио#4: Russian: 48 kHz, AC3, 2/0 (L,R) ch, ~192 kbps avg |Многоголосый закадровый, НТВ|
Аудио#5: Russian: 48 kHz, AC3, 2/0 (L,R) ch, ~192 kbps avg |Многоголосый закадровый, Лазер видео|
Аудио#6: Russian: 48 kHz, AC3, 2/0 (L,R) ch, ~224 kbps avg |Двухголосый закадровый, Союз Видео|
Аудио#7: Russian: 48 kHz, AC3, 2/0 (L,R) ch, ~224 kbps avg |Одноголосый закадровый, А. Кашкин|
Аудио#8: Russian: 48 kHz, AC3, 3/2 (L,C,R,l,r) + LFE ch, ~384 kbps avg |Одноголосый закадровый, А. Гаврилов|
Аудио#9: Russian: 48 kHz, DTS, 3/2 (L,C,R,l,r) + LFE ch, ~1509 kbps avg |Одноголосый закадровый, Ю. Живов|
Аудио#10: English: 48 kHz, DTS, 3/2 (L,C,R,l,r) + LFE ch, ~1509 kbps avg
General
Unique ID : 233996949835346935187416484156774575263 (0xB00A2C5AA8365DBDA6A9F6B93D8C6C9F)
Complete name : /home/sb753/files/Ronin.1998.1080p.BluRay.9xRus.Eng.HDCLUB-SbR.mkv
Format : Matroska
Format version : Version 4 / Version 2
File size : 15.2 GiB
Duration : 2h 1mn
Overall bit rate : 17.9 Mbps
Movie name : Ronin (1998) - Release for HDCLUB by SbR
Encoded date : UTC 2014-05-15 06:32:32
Writing application : mkvmerge v6.9.1 ('Blue Panther') 64bit built on Apr 18 2014 18:23:38
Writing library : libebml v1.3.0 + libmatroska v1.4.1
Attachment : Yes / Yes / Yes

Video
ID : 1
Format : AVC
Format/Info : Advanced Video Codec
Format profile : High@L4.1
Format settings, CABAC : Yes
Format settings, ReFrames : 5 frames
Codec ID : V_MPEG4/ISO/AVC
Duration : 2h 1mn
Bit rate : 12.0 Mbps
Width : 1 920 pixels
Height : 812 pixels
Display aspect ratio : 2.35:1
Frame rate : 23.976 fps
Color space : YUV
Chroma subsampling : 4:2:0
Bit depth : 8 bits
Scan type : Progressive
Bits/(Pixel*Frame) : 0.321
Stream size : 9.88 GiB (65%)
Title : Release for HDCLUB
Writing library : x264 core 142 r2431+42 c69a006 tMod [8-bit@4:2:0 X86_64]
Encoding settings : cabac=1 / ref=5 / deblock=1:-2:-2 / analyse=0x3:0x133 / me=umh / subme=11 / psy=1 / fade_compensate=0.00 / psy_rd=1.00:0.00 / mixed_ref=1 / me_range=32 / chroma_me=1 / trellis=2 / 8x8dct=1 / cqm=0 / deadzone=21,11 / fast_pskip=0 / chroma_qp_offset=-2 / threads=12 / lookahead_threads=3 / sliced_threads=0 / nr=0 / decimate=1 / interlaced=0 / bluray_compat=0 / constrained_intra=0 / fgo=0 / bframes=10 / b_pyramid=2 / b_adapt=2 / b_bias=0 / direct=3 / weightb=1 / open_gop=0 / weightp=2 / keyint=250 / keyint_min=23 / scenecut=40 / intra_refresh=0 / rc_lookahead=120 / rc=2pass / mbtree=1 / bitrate=12000 / ratetol=1.0 / qcomp=0.70 / qpmin=0:0:0 / qpmax=69:69:69 / qpstep=4 / cplxblur=20.0 / qblur=0.5 / vbv_maxrate=62500 / vbv_bufsize=78125 / nal_hrd=none / filler=0 / ip_ratio=1.40 / aq=4:0.70 / aq-sensitivity=11.00 / aq-factor=1.00:1.00:1.00 / aq2=1:0.60 / aq2-sensitivity=9.00 / aq2-factor=1.00:1.00:1.00 / aq3=1:[0.60:0.60]:[0.60:0.60]:[0.60:0.60]:[0.60:0.60] / aq3-sensitivity=10.00 / aq3-factor=[1.00:1.00]:[1.00:1.00]:[1.00:1.00] / aq3-boundary=192:64:24
Language : English
Default : Yes
Forced : No
Color primaries : BT.709-5, BT.1361, IEC 61966-2-4, SMPTE RP177
Transfer characteristics : BT.709-5, BT.1361
Matrix coefficients : BT.709-5, BT.1361, IEC 61966-2-4 709, SMPTE RP177

Audio #1
ID : 2
Format : AC-3
Format/Info : Audio Coding 3
Mode extension : CM (complete main)
Format settings, Endianness : Big
Codec ID : A_AC3
Duration : 2h 1mn
Bit rate mode : Constant
Bit rate : 192 Kbps
Channel(s) : 2 channels
Channel positions : Front: L R
Sampling rate : 48.0 KHz
Bit depth : 16 bits
Compression mode : Lossy
Stream size : 167 MiB (1%)
Title : MVO, ????? ?????
Language : Russian
Default : Yes
Forced : No

Audio #2
ID : 3
Format : DTS
Format/Info : Digital Theater Systems
Codec ID : A_DTS
Duration : 2h 1mn
Bit rate mode : Constant
Bit rate : 754 Kbps
Channel(s) : 6 channels
Channel positions : Front: L C R, Side: L R, LFE
Sampling rate : 48.0 KHz
Bit depth : 24 bits
Compression mode : Lossy
Stream size : 656 MiB (4%)
Title : MVO, ?.?.?.
Language : Russian
Default : No
Forced : No

Audio #3
ID : 4
Format : DTS
Format/Info : Digital Theater Systems
Codec ID : A_DTS
Duration : 2h 1mn
Bit rate mode : Constant
Bit rate : 754 Kbps
Channel(s) : 6 channels
Channel positions : Front: L C R, Side: L R, LFE
Sampling rate : 48.0 KHz
Bit depth : 24 bits
Compression mode : Lossy
Stream size : 656 MiB (4%)
Title : MVO, ???????? ?????
Language : Russian
Default : No
Forced : No

Audio #4
ID : 5
Format : AC-3
Format/Info : Audio Coding 3
Mode extension : CM (complete main)
Format settings, Endianness : Big
Codec ID : A_AC3
Duration : 2h 1mn
Bit rate mode : Constant
Bit rate : 192 Kbps
Channel(s) : 2 channels
Channel positions : Front: L R
Sampling rate : 48.0 KHz
Bit depth : 16 bits
Compression mode : Lossy
Stream size : 167 MiB (1%)
Title : MVO, ???
Language : Russian
Default : No
Forced : No

Audio #5
ID : 6
Format : AC-3
Format/Info : Audio Coding 3
Mode extension : CM (complete main)
Format settings, Endianness : Big
Codec ID : A_AC3
Duration : 2h 1mn
Bit rate mode : Constant
Bit rate : 192 Kbps
Channel(s) : 2 channels
Channel positions : Front: L R
Sampling rate : 48.0 KHz
Bit depth : 16 bits
Compression mode : Lossy
Stream size : 167 MiB (1%)
Title : MVO, ????? ?????
Language : Russian
Default : No
Forced : No

Audio #6
ID : 7
Format : AC-3
Format/Info : Audio Coding 3
Mode extension : CM (complete main)
Format settings, Endianness : Big
Codec ID : A_AC3
Duration : 2h 1mn
Bit rate mode : Constant
Bit rate : 224 Kbps
Channel(s) : 2 channels
Channel positions : Front: L R
Sampling rate : 48.0 KHz
Bit depth : 16 bits
Compression mode : Lossy
Stream size : 195 MiB (1%)
Title : DVO, ???? ?????
Language : Russian
Default : No
Forced : No

Audio #7
ID : 8
Format : AC-3
Format/Info : Audio Coding 3
Mode extension : CM (complete main)
Format settings, Endianness : Big
Codec ID : A_AC3
Duration : 2h 1mn
Bit rate mode : Constant
Bit rate : 224 Kbps
Channel(s) : 2 channels
Channel positions : Front: L R
Sampling rate : 48.0 KHz
Bit depth : 16 bits
Compression mode : Lossy
Stream size : 195 MiB (1%)
Title : AVO, ??????
Language : Russian
Default : No
Forced : No

Audio #8
ID : 9
Format : AC-3
Format/Info : Audio Coding 3
Mode extension : CM (complete main)
Format settings, Endianness : Big
Codec ID : A_AC3
Duration : 2h 1mn
Bit rate mode : Constant
Bit rate : 384 Kbps
Channel(s) : 6 channels
Channel positions : Front: L C R, Side: L R, LFE
Sampling rate : 48.0 KHz
Bit depth : 16 bits
Compression mode : Lossy
Stream size : 334 MiB (2%)
Title : AVO, ????????
Language : Russian
Default : No
Forced : No

Audio #9
ID : 10
Format : DTS
Format/Info : Digital Theater Systems
Codec ID : A_DTS
Duration : 2h 1mn
Bit rate mode : Constant
Bit rate : 1 510 Kbps
Channel(s) : 6 channels
Channel positions : Front: L C R, Side: L R, LFE
Sampling rate : 48.0 KHz
Bit depth : 24 bits
Compression mode : Lossy
Stream size : 1.28 GiB (8%)
Title : VO, ?????
Language : Russian
Default : No
Forced : No

Audio #10
ID : 11
Format : DTS
Format/Info : Digital Theater Systems
Codec ID : A_DTS
Duration : 2h 1mn
Bit rate mode : Constant
Bit rate : 1 510 Kbps
Channel(s) : 6 channels
Channel positions : Front: L C R, Side: L R, LFE
Sampling rate : 48.0 KHz
Bit depth : 24 bits
Compression mode : Lossy
Stream size : 1.28 GiB (8%)
Language : English
Default : No
Forced : No

Text #1
ID : 12
Format : UTF-8
Codec ID : S_TEXT/UTF8
Codec ID/Info : UTF-8 Plain Text
Language : Russian
Default : No
Forced : No

Text #2
ID : 13
Format : ASS
Codec ID : S_TEXT/ASS
Codec ID/Info : Advanced Sub Station Alpha
Compression mode : Lossless
Title : forced
Language : English
Default : No
Forced : No

Text #3
ID : 14
Format : ASS
Codec ID : S_TEXT/ASS
Codec ID/Info : Advanced Sub Station Alpha
Compression mode : Lossless
Language : English
Default : No
Forced : No

Text #4
ID : 15
Format : UTF-8
Codec ID : S_TEXT/UTF8
Codec ID/Info : UTF-8 Plain Text
Language : English
Default : No
Forced : No

Menu
00:00:00.000 : en:Start
00:07:01.796 : en:Team Dynamics
00:10:28.962 : en:Botched Exchange
00:15:23.339 : en:New Negotiations
00:17:22.083 : en:Photographic Study
00:18:55.051 : en:Remote Sensor Tracking
00:24:12.785 : en:In Search of Gregor
00:26:20.662 : en:Answering to the Boss
00:27:20.138 : en:Those Who Wait...
00:31:22.172 : en:The Link to the Case
00:33:54.491 : en:Ice-Skating Gala
00:39:19.899 : en:Farewell
00:41:19.352 : en:Bull's-Eye Bombing
00:45:21.719 : en:Chasing the Target
00:49:51.238 : en:Crashing the Case
00:51:35.843 : en:Spiritual Doctor
00:54:35.564 : en:"Life Is Uncertain"
00:57:32.240 : en:Gregor's Icy Ring
00:58:53.238 : en:"I Need Your Help!"
01:01:21.344 : en:The Arena Massacre
01:09:04.599 : en:Directing Surgery
01:14:48.275 : en:Seamus' Hostility
01:20:06.051 : en:Masterless Samurai
01:24:01.495 : en:Fragile Hesitation
01:27:05.345 : en:Chases to Die For
01:35:04.324 : en:A Questionable Case
01:39:31.924 : en:Scary Ice Skating
01:45:25.110 : en:Gregor's Gunned Down
01:49:22.264 : en:A Frenzy of Fleeing
01:51:49.411 : en:Showdown with Seamus
01:53:46.403 : en:"Peaceful" Closure
01:56:02.581 : en:Credits
pb.wtf



Скачать Ронин через торрент http://i65.fastpic.ru/big/2014/1005/90/30a91b8b77705f29edf46b67d27e3890.png Скачать фильм Ронин через торрент бесплантно в хорошем качестве Описание: Хотя холодная война давно закончена, тайные наемники, чьи навыки в слежке, шпионаже и силовых схватках буквально легендарны, ... 10 10 8
Info! Золотая раздача, скачанное не засчитывается.
Торрент: Зарегистрирован [2014-10-05 19:53] · скачан: 49 раз
Статус: √ проверено
Размер: 15.23 GB
Как cкачать? Как скачать Ронин через торрент | qTorrent

% Раздел Тема Автор DL S | L
Ultra HD (UHD: 2K, 4K, 8K) — видео сверхвысокой чёткости [ 57.4 GB ] 47 ронинов / 47 Ronin [2013 UHD Blu-Ray EUR 2160p] DUB [] bober100 Скачать
2 | 0
Ultra HD (UHD: 2K, 4K, 8K) — видео сверхвысокой чёткости [ 33.3 GB ] 47 ронинов / 47 Ronin [2013 UHD BDRip 2160p ] DUB [] +AVO [Гаврилов] bober100 Скачать
1 | 0
Ultra HD (UHD: 2K, 4K, 8K) — видео сверхвысокой чёткости [ 25.14 GB ] 47 ронинов / 47 Ronin [2013 UHD BDRip 2160p] DUB [] +AVO [Гаврилов] bober100 Скачать
1 | 0
Ultra HD (UHD: 2K, 4K, 8K) — видео сверхвысокой чёткости [ 52.25 GB ] 47 ронинов / 47 Ronin [2013 UHD BDRemux 2160p] DUB [] +AVO [Гаврилов] bober100 Скачать
4 | 0
Фильмы [HD 720p, 1080p] (Хороший звук DUB, MVO) [ 4.37 GB ] Ронин / Ronin / 4K Remastered [1998 BDRip 1080p-HEVC 10bit ] ADVOKAT69 Скачать
1 | 0
Фильмы (Blu-ray, BD-Remux, HDDVD) [ 41.42 GB ] 47 ронинов / 47 Ronin [2013 Blu-ray ] Бумер Скачать
1 | 0
3D Фильмы [ 9.96 GB ] 47 ронинов 3D / 47 Ronin 3D [ 2013 BDRip1080 ]DUB Half OverUnder GEKADOL Скачать
1 | 0

28-11-2019 20:33  

Отключить всю рекламу на сайте

    Дорогой пользователь! Огромная просьба, поблагодарите релизера, оцените раздачу и оставьте свои комментарий, если Вы скачали Ронин через торрент бесплатно! Внесите свою лепту в развитие PiratBit!
    Комментировать посты могут только пользователи прошедшие не сложную регистрацию
    Показать сообщения:    

    Ронин через торрент
    Скачать бесплатно Ронин
    Ронин скачать торрент
    Ронин смотреть онлайн
    Cкачать фильм Ронин бесплатно
    Ронин скачать торрент в хорошем качестве
    Ронин смотреть онлайн бесплатно в хорошем качестве


    Вы не можете начинать темы
    Вы не можете отвечать на сообщения
    Вы не можете редактировать свои сообщения
    Вы не можете удалять свои сообщения
    Вы не можете голосовать в опросах
    Вы не можете прикреплять файлы к сообщениям
    Вы можете скачивать файлы